Carefully constructed music sets for your aural pleasure
Aerodynamix 084 @ Frisky Radio November 2021 mixed by JuanP
Melodic Techno / Prog House
1:00:00
melodic techno,progressive house
SHOW TRACKLIST
SHOW CUESHEET
SHOW TXT PL

LOAD IN AUDIO PLAYER

1
Kenji Sekiguchi
Firespark (Original Mix)
06:19
2
Morttagua
The 8th Sense (Original Mix)
05:56
3
Tunnelvisions
Tell Me When We re There (Original Mix)
05:54
4
Oliver Schories
Tempest (Rodriguez Jr. Remix)
05:07
5
Enamour
Epiphany Engineering (Original Mix)
06:01
6
Silky Sunday Feat. Snoux
Whole World
06:24
7
Moeaike
Journey Through Music feat. Howard Dee (Original Mix)
06:16
8
Sasha Carassi
Spaceballad (Original Mix)
06:09
9
ARTBAT
Horizon (Original Mix)
05:47
10
Fabrication
Before We Know Light (Original Mix)
06:07
PERFORMER "VA [Mixed by JuanP]" TITLE "Aerodynamix 084 (November 2021) Frisky Radio" FILE "101-va-aerodynamix_084_mixed_by_juan_prada_friskyradio-nov2021.mp3" WAVE TRACK 01 AUDIO PERFORMER "Kenji Sekiguchi" TITLE "Firespark (Original Mix)" INDEX 01 00:00:00 TRACK 02 AUDIO PERFORMER "Morttagua" TITLE "The 8th Sense (Original Mix)" INDEX 01 06:19:00 TRACK 03 AUDIO PERFORMER "Tunnelvisions" TITLE "Tell Me When We re There (Original Mix)" INDEX 01 12:15:00 TRACK 04 AUDIO PERFORMER "Oliver Schories" TITLE "Tempest (Rodriguez Jr. Remix)" INDEX 01 18:09:00 TRACK 05 AUDIO PERFORMER "Enamour" TITLE "Epiphany Engineering (Original Mix)" INDEX 01 23:16:00 TRACK 06 AUDIO PERFORMER "Silky Sunday Feat. Snoux" TITLE "Whole World" INDEX 01 29:17:00 TRACK 07 AUDIO PERFORMER "Moeaike" TITLE "Journey Through Music feat. Howard Dee (Original Mix)" INDEX 01 35:41:00 TRACK 08 AUDIO PERFORMER "Sasha Carassi" TITLE "Spaceballad (Original Mix)" INDEX 01 41:57:00 TRACK 09 AUDIO PERFORMER "ARTBAT" TITLE "Horizon (Original Mix)" INDEX 01 48:06:00 TRACK 10 AUDIO PERFORMER "Fabrication" TITLE "Before We Know Light (Original Mix)" INDEX 01 53:53:00
01 Kenji Sekiguchi - Firespark (Original Mix) 00:00 02 Morttagua - The 8th Sense (Original Mix) 06:19 03 Tunnelvisions - Tell Me When We re There (Original Mix) 12:15 04 Oliver Schories - Tempest (Rodriguez Jr. Remix) 18:09 05 Enamour - Epiphany Engineering (Original Mix) 23:16 06 Silky Sunday Feat. Snoux - Whole World 29:17 07 Moeaike - Journey Through Music feat. Howard Dee (Original Mix) 35:41 08 Sasha Carassi - Spaceballad (Original Mix) 41:57 09 ARTBAT - Horizon (Original Mix) 48:06 10 Fabrication - Before We Know Light (Original Mix) 53:53
Aerodynamix 084 @ Frisky Radio November 2021 mixed by JuanPdata/101-va-aerodynamix_084_mixed_by_juan_prada_friskyradio-nov2021-500px.pngdata/101-va-aerodynamix_084_mixed_by_juan_prada_friskyradio-nov2021.mp3data/101-va-aerodynamix_084_mixed_by_juan_prada_friskyradio-nov2021.ogg
{"Cuesheet":{"performer":"VA [Mixed by JuanP]","title":"Aerodynamix 084 (November 2021) Frisky Radio","file":"101-va-aerodynamix_084_mixed_by_juan_prada_friskyradio-nov2021.mp3"},"Track":[{"performer":"Kenji Sekiguchi","title":"Firespark (Original Mix)","index":{"time":"00:00:00","frames":0,"seconds":0,"lenseconds":379,"lentime":"06:19"}},{"performer":"Morttagua","title":"The 8th Sense (Original Mix)","index":{"time":"06:19:00","frames":28425,"seconds":379,"lenseconds":356,"lentime":"05:56"}},{"performer":"Tunnelvisions","title":"Tell Me When We re There (Original Mix)","index":{"time":"12:15:00","frames":55125,"seconds":735,"lenseconds":354,"lentime":"05:54"}},{"performer":"Oliver Schories","title":"Tempest (Rodriguez Jr. Remix)","index":{"time":"18:09:00","frames":81675,"seconds":1089,"lenseconds":307,"lentime":"05:07"}},{"performer":"Enamour","title":"Epiphany Engineering (Original Mix)","index":{"time":"23:16:00","frames":104700,"seconds":1396,"lenseconds":361,"lentime":"06:01"}},{"performer":"Silky Sunday Feat. Snoux","title":"Whole World","index":{"time":"29:17:00","frames":131775,"seconds":1757,"lenseconds":384,"lentime":"06:24"}},{"performer":"Moeaike","title":"Journey Through Music feat. Howard Dee (Original Mix)","index":{"time":"35:41:00","frames":160575,"seconds":2141,"lenseconds":376,"lentime":"06:16"}},{"performer":"Sasha Carassi","title":"Spaceballad (Original Mix)","index":{"time":"41:57:00","frames":188775,"seconds":2517,"lenseconds":369,"lentime":"06:09"}},{"performer":"ARTBAT","title":"Horizon (Original Mix)","index":{"time":"48:06:00","frames":216450,"seconds":2886,"lenseconds":347,"lentime":"05:47"}},{"performer":"Fabrication","title":"Before We Know Light (Original Mix)","index":{"time":"53:53:00","frames":242475,"seconds":3233,"lenseconds":367,"lentime":"06:07"}}]}