Carefully constructed music sets for your aural pleasure
Aerodynamix 083 @ Frisky Radio September 2021 mixed by JuanP
Nu Disco / Prog House
1:00:00
nu disco,progressive house
SHOW TRACKLIST
SHOW CUESHEET
SHOW TXT PL

LOAD IN AUDIO PLAYER

1
Hicky & Kalo
Borealis (Original Mix)
08:54
2
Musumeci, Lehar
Bells Of Freedom (Original Mix)
04:41
3
Dodi Palese, Musumeci
Go (Original Mix)
04:02
4
Luttrell
Operation Midnight (Extended Mix)
05:28
5
Fritz Kalkbrenner
Golden (Fideles Extended Mix)
05:43
6
LTN
Beside the Fire (Extended Mix)
04:26
7
Guy J
Modulator (Original Mix)
07:07
8
Claude VonStroke, Steve Darko
How Many Times (Original Mix)
03:33
9
Grum ft Nicole Dash Jones
Home
05:50
10
Dosem, Tinlicker
Hypnotised (Extended Mix)
05:36
11
Highly Sedated
Last Call (CYA Remix)
04:40
PERFORMER "VA [Mixed by JuanP]" TITLE "Aerodynamix 083 (September 2021) Frisky Radio" FILE "100-va-aerodynamix_083_mixed_by_juan_prada_friskyradio-sep2021.mp3" WAVE TRACK 01 AUDIO PERFORMER "Hicky & Kalo" TITLE "Borealis (Original Mix)" INDEX 01 00:00:00 TRACK 02 AUDIO PERFORMER "Musumeci, Lehar" TITLE "Bells Of Freedom (Original Mix)" INDEX 01 08:54:00 TRACK 03 AUDIO PERFORMER "Dodi Palese, Musumeci" TITLE "Go (Original Mix)" INDEX 01 13:35:00 TRACK 04 AUDIO PERFORMER "Luttrell" TITLE "Operation Midnight (Extended Mix)" INDEX 01 17:37:00 TRACK 05 AUDIO PERFORMER "Fritz Kalkbrenner" TITLE "Golden (Fideles Extended Mix)" INDEX 01 23:05:00 TRACK 06 AUDIO PERFORMER "LTN" TITLE "Beside the Fire (Extended Mix)" INDEX 01 28:48:00 TRACK 07 AUDIO PERFORMER "Guy J" TITLE "Modulator (Original Mix)" INDEX 01 33:14:00 TRACK 08 AUDIO PERFORMER "Claude VonStroke, Steve Darko" TITLE "How Many Times (Original Mix)" INDEX 01 40:21:00 TRACK 09 AUDIO PERFORMER "Grum ft Nicole Dash Jones" TITLE "Home" INDEX 01 43:54:00 TRACK 10 AUDIO PERFORMER "Dosem, Tinlicker" TITLE "Hypnotised (Extended Mix)" INDEX 01 49:44:00 TRACK 11 AUDIO PERFORMER "Highly Sedated" TITLE "Last Call (CYA Remix)" INDEX 01 55:20:00
01 Hicky & Kalo - Borealis (Original Mix) 00:00 02 Musumeci, Lehar - Bells Of Freedom (Original Mix) 08:54 03 Dodi Palese, Musumeci - Go (Original Mix) 13:35 04 Luttrell - Operation Midnight (Extended Mix) 17:37 05 Fritz Kalkbrenner - Golden (Fideles Extended Mix) 23:05 06 LTN - Beside the Fire (Extended Mix) 28:48 07 Guy J - Modulator (Original Mix) 33:14 08 Claude VonStroke, Steve Darko - How Many Times (Original Mix) 40:21 09 Grum ft Nicole Dash Jones - Home 43:54 10 Dosem, Tinlicker - Hypnotised (Extended Mix) 49:44 11 Highly Sedated - Last Call (CYA Remix) 55:20
Aerodynamix 083 @ Frisky Radio September 2021 mixed by JuanPdata/100-va-aerodynamix_083_mixed_by_juan_prada_friskyradio-sep2021-500px.pngdata/100-va-aerodynamix_083_mixed_by_juan_prada_friskyradio-sep2021.mp3data/100-va-aerodynamix_083_mixed_by_juan_prada_friskyradio-sep2021.ogg
{"Cuesheet":{"performer":"VA [Mixed by JuanP]","title":"Aerodynamix 083 (September 2021) Frisky Radio","file":"100-va-aerodynamix_083_mixed_by_juan_prada_friskyradio-sep2021.mp3"},"Track":[{"performer":"Hicky & Kalo","title":"Borealis (Original Mix)","index":{"time":"00:00:00","frames":0,"seconds":0,"lenseconds":534,"lentime":"08:54"}},{"performer":"Musumeci, Lehar","title":"Bells Of Freedom (Original Mix)","index":{"time":"08:54:00","frames":40050,"seconds":534,"lenseconds":281,"lentime":"04:41"}},{"performer":"Dodi Palese, Musumeci","title":"Go (Original Mix)","index":{"time":"13:35:00","frames":61125,"seconds":815,"lenseconds":242,"lentime":"04:02"}},{"performer":"Luttrell","title":"Operation Midnight (Extended Mix)","index":{"time":"17:37:00","frames":79275,"seconds":1057,"lenseconds":328,"lentime":"05:28"}},{"performer":"Fritz Kalkbrenner","title":"Golden (Fideles Extended Mix)","index":{"time":"23:05:00","frames":103875,"seconds":1385,"lenseconds":343,"lentime":"05:43"}},{"performer":"LTN","title":"Beside the Fire (Extended Mix)","index":{"time":"28:48:00","frames":129600,"seconds":1728,"lenseconds":266,"lentime":"04:26"}},{"performer":"Guy J","title":"Modulator (Original Mix)","index":{"time":"33:14:00","frames":149550,"seconds":1994,"lenseconds":427,"lentime":"07:07"}},{"performer":"Claude VonStroke, Steve Darko","title":"How Many Times (Original Mix)","index":{"time":"40:21:00","frames":181575,"seconds":2421,"lenseconds":213,"lentime":"03:33"}},{"performer":"Grum ft Nicole Dash Jones","title":"Home","index":{"time":"43:54:00","frames":197550,"seconds":2634,"lenseconds":350,"lentime":"05:50"}},{"performer":"Dosem, Tinlicker","title":"Hypnotised (Extended Mix)","index":{"time":"49:44:00","frames":223800,"seconds":2984,"lenseconds":336,"lentime":"05:36"}},{"performer":"Highly Sedated","title":"Last Call (CYA Remix)","index":{"time":"55:20:00","frames":249000,"seconds":3320,"lenseconds":280,"lentime":"04:40"}}]}