Carefully constructed music sets for your aural pleasure
Aerodynamix 082 @ Frisky Radio July 2021 mixed by JuanP
Melodic House / Prog House
1:00:00
melodic house,progressive house
SHOW TRACKLIST
SHOW CUESHEET
SHOW TXT PL

LOAD IN AUDIO PLAYER

1
Grum
Deep State
02:23
2
Ltn, Ghostbeat, Katrin Souza
Back To The Future
04:00
3
Pretty Pink
Come Back
05:25
4
Eelke Kleijn Feat. Diana Miro
You
06:12
5
Alt J
Breezeblocks (Tinlicker Mix)
06:09
6
Tinlicker
Watching Over You
05:10
7
Guy Mantzur, Khen
My Golden Cage
06:43
8
Th, en, Mango, Chris Cargo
Morgenstunde
06:58
9
Jerome Isma-Ae & Alastor
Opium (Stan Kolev Remix)
06:27
10
Dezza
Law of Attraction (Original Mix)
05:10
11
Roy Rosenfeld
Otro
05:23
PERFORMER "VA [Mixed by JuanP]" TITLE "Aerodynamix 082 (July 2021) Frisky Radio" FILE "99-va-aerodynamix_082_mixed_by_juan_prada_friskyradio-jul2021.mp3" WAVE TRACK 01 AUDIO PERFORMER "Grum" TITLE "Deep State" INDEX 01 00:00:00 TRACK 02 AUDIO PERFORMER "Ltn, Ghostbeat, Katrin Souza" TITLE "Back To The Future" INDEX 01 02:23:00 TRACK 03 AUDIO PERFORMER "Pretty Pink" TITLE "Come Back" INDEX 01 06:23:00 TRACK 04 AUDIO PERFORMER "Eelke Kleijn Feat. Diana Miro" TITLE "You" INDEX 01 11:48:00 TRACK 05 AUDIO PERFORMER "Alt J" TITLE "Breezeblocks (Tinlicker Mix)" INDEX 01 18:00:00 TRACK 06 AUDIO PERFORMER "Tinlicker" TITLE "Watching Over You" INDEX 01 24:09:00 TRACK 07 AUDIO PERFORMER "Guy Mantzur, Khen" TITLE "My Golden Cage" INDEX 01 29:19:00 TRACK 08 AUDIO PERFORMER "Th, en, Mango, Chris Cargo" TITLE "Morgenstunde" INDEX 01 36:02:00 TRACK 09 AUDIO PERFORMER "Jerome Isma-Ae & Alastor" TITLE "Opium (Stan Kolev Remix)" INDEX 01 43:00:00 TRACK 10 AUDIO PERFORMER "Dezza" TITLE "Law of Attraction (Original Mix)" INDEX 01 49:27:00 TRACK 11 AUDIO PERFORMER "Roy Rosenfeld" TITLE "Otro" INDEX 01 54:37:00
01 Grum - Deep State 00:00 02 Ltn, Ghostbeat, Katrin Souza - Back To The Future 02:23 03 Pretty Pink - Come Back 06:23 04 Eelke Kleijn Feat. Diana Miro - You 11:48 05 Alt J - Breezeblocks (Tinlicker Mix) 18:00 06 Tinlicker - Watching Over You 24:09 07 Guy Mantzur, Khen - My Golden Cage 29:19 08 Th, en, Mango, Chris Cargo - Morgenstunde 36:02 09 Jerome Isma-Ae & Alastor - Opium (Stan Kolev Remix) 43:00 10 Dezza - Law of Attraction (Original Mix) 49:27 11 Roy Rosenfeld - Otro 54:37
Aerodynamix 082 @ Frisky Radio July 2021 mixed by JuanPdata/99-va-aerodynamix_082_mixed_by_juan_prada_friskyradio-jul2021-500px.pngdata/99-va-aerodynamix_082_mixed_by_juan_prada_friskyradio-jul2021.mp3data/99-va-aerodynamix_082_mixed_by_juan_prada_friskyradio-jul2021.ogg
{"Cuesheet":{"performer":"VA [Mixed by JuanP]","title":"Aerodynamix 082 (July 2021) Frisky Radio","file":"99-va-aerodynamix_082_mixed_by_juan_prada_friskyradio-jul2021.mp3"},"Track":[{"performer":"Grum","title":"Deep State","index":{"time":"00:00:00","frames":0,"seconds":0,"lenseconds":143,"lentime":"02:23"}},{"performer":"Ltn, Ghostbeat, Katrin Souza","title":"Back To The Future","index":{"time":"02:23:00","frames":10725,"seconds":143,"lenseconds":240,"lentime":"04:00"}},{"performer":"Pretty Pink","title":"Come Back","index":{"time":"06:23:00","frames":28725,"seconds":383,"lenseconds":325,"lentime":"05:25"}},{"performer":"Eelke Kleijn Feat. Diana Miro","title":"You","index":{"time":"11:48:00","frames":53100,"seconds":708,"lenseconds":372,"lentime":"06:12"}},{"performer":"Alt J","title":"Breezeblocks (Tinlicker Mix)","index":{"time":"18:00:00","frames":81000,"seconds":1080,"lenseconds":369,"lentime":"06:09"}},{"performer":"Tinlicker","title":"Watching Over You","index":{"time":"24:09:00","frames":108675,"seconds":1449,"lenseconds":310,"lentime":"05:10"}},{"performer":"Guy Mantzur, Khen","title":"My Golden Cage","index":{"time":"29:19:00","frames":131925,"seconds":1759,"lenseconds":403,"lentime":"06:43"}},{"performer":"Th, en, Mango, Chris Cargo","title":"Morgenstunde","index":{"time":"36:02:00","frames":162150,"seconds":2162,"lenseconds":418,"lentime":"06:58"}},{"performer":"Jerome Isma-Ae & Alastor","title":"Opium (Stan Kolev Remix)","index":{"time":"43:00:00","frames":193500,"seconds":2580,"lenseconds":387,"lentime":"06:27"}},{"performer":"Dezza","title":"Law of Attraction (Original Mix)","index":{"time":"49:27:00","frames":222525,"seconds":2967,"lenseconds":310,"lentime":"05:10"}},{"performer":"Roy Rosenfeld","title":"Otro","index":{"time":"54:37:00","frames":245775,"seconds":3277,"lenseconds":323,"lentime":"05:23"}}]}