Carefully constructed music sets for your aural pleasure
December 2011: Reverse Mixed by JuanP
Drance to Progresive House. Download cuesheet here: http://goo.gl/3vq2k
1:00:04
trance, dance, progressive house, electronic, session, set
SHOW TRACKLIST
SHOW CUESHEET
SHOW TXT PL

LOAD IN AUDIO PLAYER

1
Luiz B
Hidden Beauty
05:33
2
Aleete
Trilogy (Original Mix)
06:27
3
Above and Beyond feat. Miguel Bos?
Sea lo que sea ser?
05:33
4
Somnus Corporation
Expo 86
05:45
5
Underworld
Play Pig (Pig And Dan Mix 2)
06:40
6
Dezarate & Michel Manzano
Soul Is In The Air (Original Mix)
05:30
7
Jim Rivers
Black Keys (Cid Inc. Remix)
04:45
8
Dosem
Silent Drop (Original Mix)
07:00
9
Loacs Erepams
The Lightning Struck Tree (Tokyo Bay Cruise Remix)
06:08
10
Matan Caspi
Dream Machine (Ben Coda Remix)
06:43
PERFORMER "VA [Mixed by JuanP]" TITLE "Reverse (Dec 2011)" FILE "09-va-reverse_mixed_by_juan_prada-(dec_2011).mp3" WAVE TRACK 01 AUDIO TITLE "Hidden Beauty" PERFORMER "Luiz B" INDEX 01 00:00:00 TRACK 02 AUDIO TITLE "Trilogy (Original Mix)" PERFORMER "Aleete" INDEX 01 05:33:50 TRACK 03 AUDIO TITLE "Sea lo que sea ser?" PERFORMER "Above and Beyond feat. Miguel Bos?" INDEX 01 12:00:03 TRACK 04 AUDIO TITLE "Expo 86" PERFORMER "Somnus Corporation" INDEX 01 17:33:50 TRACK 05 AUDIO TITLE "Play Pig (Pig And Dan Mix 2)" PERFORMER "Underworld" INDEX 01 23:18:70 TRACK 06 AUDIO TITLE "Soul Is In The Air (Original Mix)" PERFORMER "Dezarate & Michel Manzano" INDEX 01 29:58:00 TRACK 07 AUDIO TITLE "Black Keys (Cid Inc. Remix)" PERFORMER "Jim Rivers" INDEX 01 35:28:00 TRACK 08 AUDIO TITLE "Silent Drop (Original Mix)" PERFORMER "Dosem" INDEX 01 40:13:00 TRACK 09 AUDIO TITLE "The Lightning Struck Tree (Tokyo Bay Cruise Remix)" PERFORMER "Loacs Erepams" INDEX 01 47:13:00 TRACK 10 AUDIO TITLE "Dream Machine (Ben Coda Remix)" PERFORMER "Matan Caspi" INDEX 01 53:21:00
01 Luiz B - Hidden Beauty 00:00 02 Aleete - Trilogy (Original Mix) 05:33 03 Above and Beyond feat. Miguel Bos? - Sea lo que sea ser? 12:00 04 Somnus Corporation - Expo 86 17:33 05 Underworld - Play Pig (Pig And Dan Mix 2) 23:18 06 Dezarate & Michel Manzano - Soul Is In The Air (Original Mix) 29:58 07 Jim Rivers - Black Keys (Cid Inc. Remix) 35:28 08 Dosem - Silent Drop (Original Mix) 40:13 09 Loacs Erepams - The Lightning Struck Tree (Tokyo Bay Cruise Remix) 47:13 10 Matan Caspi - Dream Machine (Ben Coda Remix) 53:21
December 2011: Reverse Mixed by JuanPdata/09-va-reverse_mixed_by_juan_prada-(dec_2011).pngdata/09-va-reverse_mixed_by_juan_prada-(dec_2011).mp3data/09-va-reverse_mixed_by_juan_prada-(dec_2011).ogg
{"Cuesheet":{"performer":"VA [Mixed by JuanP]","title":"Reverse (Dec 2011)","file":"09-va-reverse_mixed_by_juan_prada-(dec_2011).mp3"},"Track":[{"title":"Hidden Beauty","performer":"Luiz B","index":{"time":"00:00:00","frames":0,"seconds":0,"lenseconds":333,"lentime":"05:33"}},{"title":"Trilogy (Original Mix)","performer":"Aleete","index":{"time":"05:33:50","frames":25025,"seconds":333,"lenseconds":387,"lentime":"06:27"}},{"title":"Sea lo que sea ser?","performer":"Above and Beyond feat. Miguel Bos?","index":{"time":"12:00:03","frames":54003,"seconds":720,"lenseconds":333,"lentime":"05:33"}},{"title":"Expo 86","performer":"Somnus Corporation","index":{"time":"17:33:50","frames":79025,"seconds":1053,"lenseconds":345,"lentime":"05:45"}},{"title":"Play Pig (Pig And Dan Mix 2)","performer":"Underworld","index":{"time":"23:18:70","frames":104920,"seconds":1398,"lenseconds":400,"lentime":"06:40"}},{"title":"Soul Is In The Air (Original Mix)","performer":"Dezarate & Michel Manzano","index":{"time":"29:58:00","frames":134850,"seconds":1798,"lenseconds":330,"lentime":"05:30"}},{"title":"Black Keys (Cid Inc. Remix)","performer":"Jim Rivers","index":{"time":"35:28:00","frames":159600,"seconds":2128,"lenseconds":285,"lentime":"04:45"}},{"title":"Silent Drop (Original Mix)","performer":"Dosem","index":{"time":"40:13:00","frames":180975,"seconds":2413,"lenseconds":420,"lentime":"07:00"}},{"title":"The Lightning Struck Tree (Tokyo Bay Cruise Remix)","performer":"Loacs Erepams","index":{"time":"47:13:00","frames":212475,"seconds":2833,"lenseconds":368,"lentime":"06:08"}},{"title":"Dream Machine (Ben Coda Remix)","performer":"Matan Caspi","index":{"time":"53:21:00","frames":240075,"seconds":3201,"lenseconds":403,"lentime":"06:43"}}]}