Carefully constructed music sets for your aural pleasure
November 2011: Proghouse Scopes Mixed by JuanP
Deep Progressive House featuring brand new tracks. Download cuesheet here: http://goo.gl/3viCC
1:00:02
progressive house, electronic, session, set
SHOW TRACKLIST
SHOW CUESHEET
SHOW TXT PL

LOAD IN AUDIO PLAYER

1
Royksopp
Shores of Easy (Unreleased)
09:28
2
Oliver Lieb
Non Binary
07:39
3
Cid Inc
Spacegulls (Henry Saiz Sirens Call Remix)
06:35
4
Davi
Minor (Sezer Uysal Remix)
06:06
5
Infusion
Love and Imitation (Luis Junior Remix)
08:30
6
Liz Cirelli
Fruhling
04:04
7
Matt Lange
Bad Year Blimp (Original Mix)
08:07
8
Redanka & Quivver
Under The Sun (Deep Into Summer Vocal Mix)
03:26
9
Matan Caspi and Ben Coda
6 AM
06:07
PERFORMER "VA [Mixed by JuanP]" TITLE "Proghosue Scopes" FILE "08-va-nov2011_proghouse_scopes_mixed_by_juan_prada.mp3" WAVE TRACK 01 AUDIO TITLE "Shores of Easy (Unreleased)" PERFORMER "Royksopp" INDEX 01 00:00:00 TRACK 02 AUDIO TITLE "Non Binary" PERFORMER "Oliver Lieb" INDEX 01 09:28:10 TRACK 03 AUDIO TITLE "Spacegulls (Henry Saiz Sirens Call Remix)" PERFORMER "Cid Inc" INDEX 01 17:07:70 TRACK 04 AUDIO TITLE "Minor (Sezer Uysal Remix)" PERFORMER "Davi" INDEX 01 23:42:00 TRACK 05 AUDIO TITLE "Love and Imitation (Luis Junior Remix)" PERFORMER "Infusion" INDEX 01 29:48:00 TRACK 06 AUDIO TITLE "Fruhling" PERFORMER "Liz Cirelli" INDEX 01 38:18:00 TRACK 07 AUDIO TITLE "Bad Year Blimp (Original Mix)" PERFORMER "Matt Lange" INDEX 01 42:22:00 TRACK 08 AUDIO TITLE "Under The Sun (Deep Into Summer Vocal Mix)" PERFORMER "Redanka & Quivver" INDEX 01 50:29:00 TRACK 09 AUDIO TITLE "6 AM" PERFORMER "Matan Caspi and Ben Coda" INDEX 01 53:55:00
01 Royksopp - Shores of Easy (Unreleased) 00:00 02 Oliver Lieb - Non Binary 09:28 03 Cid Inc - Spacegulls (Henry Saiz Sirens Call Remix) 17:07 04 Davi - Minor (Sezer Uysal Remix) 23:42 05 Infusion - Love and Imitation (Luis Junior Remix) 29:48 06 Liz Cirelli - Fruhling 38:18 07 Matt Lange - Bad Year Blimp (Original Mix) 42:22 08 Redanka & Quivver - Under The Sun (Deep Into Summer Vocal Mix) 50:29 09 Matan Caspi and Ben Coda - 6 AM 53:55
November 2011: Proghouse Scopes Mixed by JuanPdata/08-va-nov2011_proghouse_scopes_mixed_by_juan_prada.jpgdata/08-va-nov2011_proghouse_scopes_mixed_by_juan_prada.mp3data/08-va-nov2011_proghouse_scopes_mixed_by_juan_prada.ogg
{"Cuesheet":{"performer":"VA [Mixed by JuanP]","title":"Proghosue Scopes","file":"08-va-nov2011_proghouse_scopes_mixed_by_juan_prada.mp3"},"Track":[{"title":"Shores of Easy (Unreleased)","performer":"Royksopp","index":{"time":"00:00:00","frames":0,"seconds":0,"lenseconds":568,"lentime":"09:28"}},{"title":"Non Binary","performer":"Oliver Lieb","index":{"time":"09:28:10","frames":42610,"seconds":568,"lenseconds":459,"lentime":"07:39"}},{"title":"Spacegulls (Henry Saiz Sirens Call Remix)","performer":"Cid Inc","index":{"time":"17:07:70","frames":77095,"seconds":1027,"lenseconds":395,"lentime":"06:35"}},{"title":"Minor (Sezer Uysal Remix)","performer":"Davi","index":{"time":"23:42:00","frames":106650,"seconds":1422,"lenseconds":366,"lentime":"06:06"}},{"title":"Love and Imitation (Luis Junior Remix)","performer":"Infusion","index":{"time":"29:48:00","frames":134100,"seconds":1788,"lenseconds":510,"lentime":"08:30"}},{"title":"Fruhling","performer":"Liz Cirelli","index":{"time":"38:18:00","frames":172350,"seconds":2298,"lenseconds":244,"lentime":"04:04"}},{"title":"Bad Year Blimp (Original Mix)","performer":"Matt Lange","index":{"time":"42:22:00","frames":190650,"seconds":2542,"lenseconds":487,"lentime":"08:07"}},{"title":"Under The Sun (Deep Into Summer Vocal Mix)","performer":"Redanka & Quivver","index":{"time":"50:29:00","frames":227175,"seconds":3029,"lenseconds":206,"lentime":"03:26"}},{"title":"6 AM","performer":"Matan Caspi and Ben Coda","index":{"time":"53:55:00","frames":242625,"seconds":3235,"lenseconds":367,"lentime":"06:07"}}]}