Carefully constructed music sets for your aural pleasure
July 2011: VocalDrance II Mixed by JuanP
Vocal progressive/trance featuring brand new tracks and classic ones. Download cuesheet here: http://goo.gl/CYyRw
1:00:06
progressive house, trance, house, electronic, session, set
SHOW TRACKLIST
SHOW CUESHEET
SHOW TXT PL

LOAD IN AUDIO PLAYER

1
Joonas Hahmo
I Like Chopin
05:44
2
Above and Beyond
Alchemy
05:09
3
Andain
Everything from me (Richard Durand Remix)
05:08
4
Andy Duguid feat. Fenja
Strings
05:52
5
Reeves feat. Alanah
Lonely (Original Mix)
06:00
6
Andrea Doria LXR
Beauty Of Silence (Inpetto Full Vox Remix)
06:41
7
Super8 and Tab
My Enemy (feat. Julie Thompson)
05:01
8
Hokkaido feat. Ange
Here to Stay (Mango Remix)
05:19
9
Myon & Shane 54 feat. Aruna
Helpless (Ian Flux & Thomas Blofeld Remix)
04:35
10
The Thrillseekers
Savanna (Alexander Popov Remix)
05:46
11
Adam White & Andy Moor Present
The White Room
04:51
PERFORMER "VA [Mixed by Juan Prada]" TITLE "July 2011: VocalDrance II mixed by JuanP" FILE "07-va-jul2011_vocaldrance_ii_mixed_by_juan_prada.mp3" WAVE TRACK 01 AUDIO TITLE "I Like Chopin" PERFORMER "Joonas Hahmo" INDEX 01 00:00:00 TRACK 02 AUDIO TITLE "Alchemy" PERFORMER "Above and Beyond" INDEX 01 05:44:10 TRACK 03 AUDIO TITLE "Everything from me (Richard Durand Remix)" PERFORMER "Andain" INDEX 01 10:53:70 TRACK 04 AUDIO TITLE "Strings" PERFORMER "Andy Duguid feat. Fenja" INDEX 01 16:01:70 TRACK 05 AUDIO TITLE "Lonely (Original Mix)" PERFORMER "Reeves feat. Alanah" INDEX 01 21:53:50 TRACK 06 AUDIO TITLE "Beauty Of Silence (Inpetto Full Vox Remix)" PERFORMER "Andrea Doria LXR" INDEX 01 27:53:00 TRACK 07 AUDIO TITLE "My Enemy (feat. Julie Thompson)" PERFORMER "Super8 and Tab" INDEX 01 34:34:00 TRACK 08 AUDIO TITLE "Here to Stay (Mango Remix)" PERFORMER "Hokkaido feat. Ange" INDEX 01 39:35:30 TRACK 09 AUDIO TITLE "Helpless (Ian Flux & Thomas Blofeld Remix)" PERFORMER "Myon & Shane 54 feat. Aruna" INDEX 01 44:54:30 TRACK 10 AUDIO TITLE "Savanna (Alexander Popov Remix)" PERFORMER "The Thrillseekers" INDEX 01 49:29:60 TRACK 11 AUDIO TITLE "The White Room" PERFORMER "Adam White & Andy Moor Present" INDEX 01 55:15:70
01 Joonas Hahmo - I Like Chopin 00:00 02 Above and Beyond - Alchemy 05:44 03 Andain - Everything from me (Richard Durand Remix) 10:53 04 Andy Duguid feat. Fenja - Strings 16:01 05 Reeves feat. Alanah - Lonely (Original Mix) 21:53 06 Andrea Doria LXR - Beauty Of Silence (Inpetto Full Vox Remix) 27:53 07 Super8 and Tab - My Enemy (feat. Julie Thompson) 34:34 08 Hokkaido feat. Ange - Here to Stay (Mango Remix) 39:35 09 Myon & Shane 54 feat. Aruna - Helpless (Ian Flux & Thomas Blofeld Remix) 44:54 10 The Thrillseekers - Savanna (Alexander Popov Remix) 49:29 11 Adam White & Andy Moor Present - The White Room 55:15
July 2011: VocalDrance II Mixed by JuanPdata/07-va-jul2011_vocaldrance_ii_mixed_by_juan_prada.jpgdata/07-va-jul2011_vocaldrance_ii_mixed_by_juan_prada.mp3data/07-va-jul2011_vocaldrance_ii_mixed_by_juan_prada.ogg
{"Cuesheet":{"performer":"VA [Mixed by Juan Prada]","title":"July 2011: VocalDrance II mixed by JuanP","file":"07-va-jul2011_vocaldrance_ii_mixed_by_juan_prada.mp3"},"Track":[{"title":"I Like Chopin","performer":"Joonas Hahmo","index":{"time":"00:00:00","frames":0,"seconds":0,"lenseconds":344,"lentime":"05:44"}},{"title":"Alchemy","performer":"Above and Beyond","index":{"time":"05:44:10","frames":25810,"seconds":344,"lenseconds":309,"lentime":"05:09"}},{"title":"Everything from me (Richard Durand Remix)","performer":"Andain","index":{"time":"10:53:70","frames":49045,"seconds":653,"lenseconds":308,"lentime":"05:08"}},{"title":"Strings","performer":"Andy Duguid feat. Fenja","index":{"time":"16:01:70","frames":72145,"seconds":961,"lenseconds":352,"lentime":"05:52"}},{"title":"Lonely (Original Mix)","performer":"Reeves feat. Alanah","index":{"time":"21:53:50","frames":98525,"seconds":1313,"lenseconds":360,"lentime":"06:00"}},{"title":"Beauty Of Silence (Inpetto Full Vox Remix)","performer":"Andrea Doria LXR","index":{"time":"27:53:00","frames":125475,"seconds":1673,"lenseconds":401,"lentime":"06:41"}},{"title":"My Enemy (feat. Julie Thompson)","performer":"Super8 and Tab","index":{"time":"34:34:00","frames":155550,"seconds":2074,"lenseconds":301,"lentime":"05:01"}},{"title":"Here to Stay (Mango Remix)","performer":"Hokkaido feat. Ange","index":{"time":"39:35:30","frames":178155,"seconds":2375,"lenseconds":319,"lentime":"05:19"}},{"title":"Helpless (Ian Flux & Thomas Blofeld Remix)","performer":"Myon & Shane 54 feat. Aruna","index":{"time":"44:54:30","frames":202080,"seconds":2694,"lenseconds":275,"lentime":"04:35"}},{"title":"Savanna (Alexander Popov Remix)","performer":"The Thrillseekers","index":{"time":"49:29:60","frames":222735,"seconds":2969,"lenseconds":346,"lentime":"05:46"}},{"title":"The White Room","performer":"Adam White & Andy Moor Present","index":{"time":"55:15:70","frames":248695,"seconds":3315,"lenseconds":291,"lentime":"04:51"}}]}