Carefully constructed music sets for your aural pleasure
Apr 2011: Prog/House Elements by JuanP
Progressive house quality tracks set. Download cuesheet here: http://goo.gl/upCzu
1:12:00
progressive house, trance, house, electronic, session, set
SHOW TRACKLIST
SHOW CUESHEET
SHOW TXT PL

LOAD IN AUDIO PLAYER

1
Moonbootica
DJ Theme
03:00
2
Underworld
Holding The Moth (Audiojack remix)
07:01
3
Adam K & Soha
Twilight (Deadmau5 Remix)
04:18
4
Danjo & Styles
Duende 2008 (Rob Styles Remix)
03:26
5
Dousk
Nails (Annie Heartbeat Remix by JuanP)
04:15
6
Van Der Vleuten
Find my Way (Michael de Kooker Remix)
04:00
7
James Talk and Ridney
West End Girls 2009 (Club Mix)
04:31
8
John Shelvin Feat. Molly
Just Like You Said (Simon & Shaker Dub Mix)
06:00
9
Astronivo
Anything You Want Feat. DJ Zombi (Beckers Remix)
04:30
10
Sun Control Species
Yaban (Kasey Taylor Remix)
08:01
11
One Plus One
No Pressure (Deadmau5 Remix)
05:59
12
Ti?sto
Always Near (Extended Ti?sto Remix)
04:16
13
Hernan Cattaneo and John Tonks
Anime (Steve Mill Remix)
05:48
14
Hybrid
Numb (Hybrid Kill City Sounds Remix 03)
03:45
15
Annie
Heartbeat
03:10
PERFORMER "VA [Mixed by Juan Prada]" TITLE "April 2011: ProgHouse Elements mixed by JuanP" FILE "06-va-apr2011_proghouse_elements_mixed_by_juan_prada.mp3" WAVE TRACK 01 AUDIO TITLE "DJ Theme" PERFORMER "Moonbootica" INDEX 01 00:00:00 TRACK 02 AUDIO TITLE "Holding The Moth (Audiojack remix)" PERFORMER "Underworld" INDEX 01 03:00:00 TRACK 03 AUDIO TITLE "Twilight (Deadmau5 Remix)" PERFORMER "Adam K & Soha" INDEX 01 10:01:00 TRACK 04 AUDIO TITLE "Duende 2008 (Rob Styles Remix)" PERFORMER "Danjo & Styles" INDEX 01 14:19:00 TRACK 05 AUDIO TITLE "Nails (Annie Heartbeat Remix by JuanP)" PERFORMER "Dousk" INDEX 01 17:45:00 TRACK 06 AUDIO TITLE "Find my Way (Michael de Kooker Remix)" PERFORMER "Van Der Vleuten" INDEX 01 22:00:00 TRACK 07 AUDIO TITLE "West End Girls 2009 (Club Mix)" PERFORMER "James Talk and Ridney" INDEX 01 26:00:00 TRACK 08 AUDIO TITLE "Just Like You Said (Simon & Shaker Dub Mix)" PERFORMER "John Shelvin Feat. Molly" INDEX 01 30:31:50 TRACK 09 AUDIO TITLE "Anything You Want Feat. DJ Zombi (Beckers Remix)" PERFORMER "Astronivo" INDEX 01 36:31:50 TRACK 10 AUDIO TITLE "Yaban (Kasey Taylor Remix)" PERFORMER "Sun Control Species" INDEX 01 41:01:30 TRACK 11 AUDIO TITLE "No Pressure (Deadmau5 Remix)" PERFORMER "One Plus One" INDEX 01 49:02:00 TRACK 12 AUDIO TITLE "Always Near (Extended Ti?sto Remix)" PERFORMER "Ti?sto" INDEX 01 55:01:50 TRACK 13 AUDIO TITLE "Anime (Steve Mill Remix)" PERFORMER "Hernan Cattaneo and John Tonks" INDEX 01 59:17:00 TRACK 14 AUDIO TITLE "Numb (Hybrid Kill City Sounds Remix 03)" PERFORMER "Hybrid" INDEX 01 65:05:00 TRACK 15 AUDIO TITLE "Heartbeat" PERFORMER "Annie" INDEX 01 68:50:00
01 Moonbootica - DJ Theme 00:00 02 Underworld - Holding The Moth (Audiojack remix) 03:00 03 Adam K & Soha - Twilight (Deadmau5 Remix) 10:01 04 Danjo & Styles - Duende 2008 (Rob Styles Remix) 14:19 05 Dousk - Nails (Annie Heartbeat Remix by JuanP) 17:45 06 Van Der Vleuten - Find my Way (Michael de Kooker Remix) 22:00 07 James Talk and Ridney - West End Girls 2009 (Club Mix) 26:00 08 John Shelvin Feat. Molly - Just Like You Said (Simon & Shaker Dub Mix) 30:31 09 Astronivo - Anything You Want Feat. DJ Zombi (Beckers Remix) 36:31 10 Sun Control Species - Yaban (Kasey Taylor Remix) 41:01 11 One Plus One - No Pressure (Deadmau5 Remix) 49:02 12 Ti?sto - Always Near (Extended Ti?sto Remix) 55:01 13 Hernan Cattaneo and John Tonks - Anime (Steve Mill Remix) 59:17 14 Hybrid - Numb (Hybrid Kill City Sounds Remix 03) 65:05 15 Annie - Heartbeat 68:50
Apr 2011: Prog/House Elements by JuanPdata/06-va-apr2011_proghouse_elements_mixed_by_juan_prada.jpgdata/06-va-apr2011_proghouse_elements_mixed_by_juan_prada.mp3data/06-va-apr2011_proghouse_elements_mixed_by_juan_prada.ogg
{"Cuesheet":{"performer":"VA [Mixed by Juan Prada]","title":"April 2011: ProgHouse Elements mixed by JuanP","file":"06-va-apr2011_proghouse_elements_mixed_by_juan_prada.mp3"},"Track":[{"title":"DJ Theme","performer":"Moonbootica","index":{"time":"00:00:00","frames":0,"seconds":0,"lenseconds":180,"lentime":"03:00"}},{"title":"Holding The Moth (Audiojack remix)","performer":"Underworld","index":{"time":"03:00:00","frames":13500,"seconds":180,"lenseconds":421,"lentime":"07:01"}},{"title":"Twilight (Deadmau5 Remix)","performer":"Adam K & Soha","index":{"time":"10:01:00","frames":45075,"seconds":601,"lenseconds":258,"lentime":"04:18"}},{"title":"Duende 2008 (Rob Styles Remix)","performer":"Danjo & Styles","index":{"time":"14:19:00","frames":64425,"seconds":859,"lenseconds":206,"lentime":"03:26"}},{"title":"Nails (Annie Heartbeat Remix by JuanP)","performer":"Dousk","index":{"time":"17:45:00","frames":79875,"seconds":1065,"lenseconds":255,"lentime":"04:15"}},{"title":"Find my Way (Michael de Kooker Remix)","performer":"Van Der Vleuten","index":{"time":"22:00:00","frames":99000,"seconds":1320,"lenseconds":240,"lentime":"04:00"}},{"title":"West End Girls 2009 (Club Mix)","performer":"James Talk and Ridney","index":{"time":"26:00:00","frames":117000,"seconds":1560,"lenseconds":271,"lentime":"04:31"}},{"title":"Just Like You Said (Simon & Shaker Dub Mix)","performer":"John Shelvin Feat. Molly","index":{"time":"30:31:50","frames":137375,"seconds":1831,"lenseconds":360,"lentime":"06:00"}},{"title":"Anything You Want Feat. DJ Zombi (Beckers Remix)","performer":"Astronivo","index":{"time":"36:31:50","frames":164375,"seconds":2191,"lenseconds":270,"lentime":"04:30"}},{"title":"Yaban (Kasey Taylor Remix)","performer":"Sun Control Species","index":{"time":"41:01:30","frames":184605,"seconds":2461,"lenseconds":481,"lentime":"08:01"}},{"title":"No Pressure (Deadmau5 Remix)","performer":"One Plus One","index":{"time":"49:02:00","frames":220650,"seconds":2942,"lenseconds":359,"lentime":"05:59"}},{"title":"Always Near (Extended Ti?sto Remix)","performer":"Ti?sto","index":{"time":"55:01:50","frames":247625,"seconds":3301,"lenseconds":256,"lentime":"04:16"}},{"title":"Anime (Steve Mill Remix)","performer":"Hernan Cattaneo and John Tonks","index":{"time":"59:17:00","frames":266775,"seconds":3557,"lenseconds":348,"lentime":"05:48"}},{"title":"Numb (Hybrid Kill City Sounds Remix 03)","performer":"Hybrid","index":{"time":"65:05:00","frames":292875,"seconds":3905,"lenseconds":225,"lentime":"03:45"}},{"title":"Heartbeat","performer":"Annie","index":{"time":"68:50:00","frames":309750,"seconds":4130,"lenseconds":190,"lentime":"03:10"}}]}