Carefully constructed music sets for your aural pleasure
March 2011: VocalDrance by JuanP
Vocal dance/trance featuring brand new tracks and classic ones. Download cuesheet here: http://goo.gl/IBkaA
1:10:23
progressive house, trance, house, electronic, session, set
SHOW TRACKLIST
SHOW CUESHEET
SHOW TXT PL

LOAD IN AUDIO PLAYER

1
Marc Evans
The Way U Love Me
04:18
2
Selena Gomez & The Scene
A Year Without Rain (Album & Dave Aud? Club Mix JP Mashup)
05:25
3
Carlos Jean feat. Nana
Lead The Way (Radio Edit Mix 3)
03:22
4
Armin van Buuren feat. Nadia Ali
Feels So Good
03:30
5
Kylie
All the Lovers (Michael Woods Dub Remix)
03:01
6
Morgan Page
Fight For You
03:42
7
Super8 & Tab feat. Jan Burton
Slow to Learn
05:18
8
Andain
Beautiful Things (Gabriel & Dresden Remix)
04:03
9
Ti?sto feat. Cary Brothers
Here on Earth
04:26
10
Richard Durand
Always the Sun
04:26
11
Reeves feat. Alanah
Lonely (Original Mix)
04:33
12
Super8 & Tab feat. Julie Thompson
My Enemy
04:38
13
Cosmic Gate feat. Emma Hewitt
Not Enough Time
04:40
14
Armin van Buuren
I Don't Own You
05:16
15
Delerium feat. Miranda Lee Richards
Send Me An Angel (Andy Moor Remix)
05:31
16
Melanie C
Reason
04:14
PERFORMER "VA [Mixed by Juan Prada]" TITLE "March 2011: VocalDrance by JP" FILE "05-va-mar2011_vocaldrance_mixed_by_juan_prada.mp3" WAVE TRACK 01 AUDIO TITLE "The Way U Love Me" PERFORMER "Marc Evans" INDEX 01 00:00:00 TRACK 02 AUDIO TITLE "A Year Without Rain (Album & Dave Aud? Club Mix JP Mashup)" PERFORMER "Selena Gomez & The Scene" INDEX 01 04:18:80 TRACK 03 AUDIO TITLE "Lead The Way (Radio Edit Mix 3)" PERFORMER "Carlos Jean feat. Nana" INDEX 01 09:43:70 TRACK 04 AUDIO TITLE "Feels So Good" PERFORMER "Armin van Buuren feat. Nadia Ali" INDEX 01 13:05:60 TRACK 05 AUDIO TITLE "All the Lovers (Michael Woods Dub Remix)" PERFORMER "Kylie" INDEX 01 16:35:00 TRACK 06 AUDIO TITLE "Fight For You" PERFORMER "Morgan Page" INDEX 01 19:36:30 TRACK 07 AUDIO TITLE "Slow to Learn" PERFORMER "Super8 & Tab feat. Jan Burton" INDEX 01 23:18:40 TRACK 08 AUDIO TITLE "Beautiful Things (Gabriel & Dresden Remix)" PERFORMER "Andain" INDEX 01 28:36:10 TRACK 09 AUDIO TITLE "Here on Earth" PERFORMER "Ti?sto feat. Cary Brothers" INDEX 01 32:39:60 TRACK 10 AUDIO TITLE "Always the Sun" PERFORMER "Richard Durand" INDEX 01 37:05:50 TRACK 11 AUDIO TITLE "Lonely (Original Mix)" PERFORMER "Reeves feat. Alanah" INDEX 01 41:31:35 TRACK 12 AUDIO TITLE "My Enemy" PERFORMER "Super8 & Tab feat. Julie Thompson" INDEX 01 46:04:00 TRACK 13 AUDIO TITLE "Not Enough Time" PERFORMER "Cosmic Gate feat. Emma Hewitt" INDEX 01 50:42:00 TRACK 14 AUDIO TITLE "I Don't Own You" PERFORMER "Armin van Buuren" INDEX 01 55:22:00 TRACK 15 AUDIO TITLE "Send Me An Angel (Andy Moor Remix)" PERFORMER "Delerium feat. Miranda Lee Richards" INDEX 01 60:38:00 TRACK 16 AUDIO TITLE "Reason" PERFORMER "Melanie C" INDEX 01 66:09:00
01 Marc Evans - The Way U Love Me 00:00 02 Selena Gomez & The Scene - A Year Without Rain (Album & Dave Aud? Club Mix JP Mashup) 04:18 03 Carlos Jean feat. Nana - Lead The Way (Radio Edit Mix 3) 09:43 04 Armin van Buuren feat. Nadia Ali - Feels So Good 13:05 05 Kylie - All the Lovers (Michael Woods Dub Remix) 16:35 06 Morgan Page - Fight For You 19:36 07 Super8 & Tab feat. Jan Burton - Slow to Learn 23:18 08 Andain - Beautiful Things (Gabriel & Dresden Remix) 28:36 09 Ti?sto feat. Cary Brothers - Here on Earth 32:39 10 Richard Durand - Always the Sun 37:05 11 Reeves feat. Alanah - Lonely (Original Mix) 41:31 12 Super8 & Tab feat. Julie Thompson - My Enemy 46:04 13 Cosmic Gate feat. Emma Hewitt - Not Enough Time 50:42 14 Armin van Buuren - I Don't Own You 55:22 15 Delerium feat. Miranda Lee Richards - Send Me An Angel (Andy Moor Remix) 60:38 16 Melanie C - Reason 66:09
March 2011: VocalDrance by JuanPdata/05-va-mar2011_vocaldrance_mixed_by_juan_prada.jpgdata/05-va-mar2011_vocaldrance_mixed_by_juan_prada.mp3data/05-va-mar2011_vocaldrance_mixed_by_juan_prada.ogg
{"Cuesheet":{"performer":"VA [Mixed by Juan Prada]","title":"March 2011: VocalDrance by JP","file":"05-va-mar2011_vocaldrance_mixed_by_juan_prada.mp3"},"Track":[{"title":"The Way U Love Me","performer":"Marc Evans","index":{"time":"00:00:00","frames":0,"seconds":0,"lenseconds":258,"lentime":"04:18"}},{"title":"A Year Without Rain (Album & Dave Aud? Club Mix JP Mashup)","performer":"Selena Gomez & The Scene","index":{"time":"04:18:80","frames":19430,"seconds":258,"lenseconds":325,"lentime":"05:25"}},{"title":"Lead The Way (Radio Edit Mix 3)","performer":"Carlos Jean feat. Nana","index":{"time":"09:43:70","frames":43795,"seconds":583,"lenseconds":202,"lentime":"03:22"}},{"title":"Feels So Good","performer":"Armin van Buuren feat. Nadia Ali","index":{"time":"13:05:60","frames":58935,"seconds":785,"lenseconds":210,"lentime":"03:30"}},{"title":"All the Lovers (Michael Woods Dub Remix)","performer":"Kylie","index":{"time":"16:35:00","frames":74625,"seconds":995,"lenseconds":181,"lentime":"03:01"}},{"title":"Fight For You","performer":"Morgan Page","index":{"time":"19:36:30","frames":88230,"seconds":1176,"lenseconds":222,"lentime":"03:42"}},{"title":"Slow to Learn","performer":"Super8 & Tab feat. Jan Burton","index":{"time":"23:18:40","frames":104890,"seconds":1398,"lenseconds":318,"lentime":"05:18"}},{"title":"Beautiful Things (Gabriel & Dresden Remix)","performer":"Andain","index":{"time":"28:36:10","frames":128710,"seconds":1716,"lenseconds":243,"lentime":"04:03"}},{"title":"Here on Earth","performer":"Ti?sto feat. Cary Brothers","index":{"time":"32:39:60","frames":146985,"seconds":1959,"lenseconds":266,"lentime":"04:26"}},{"title":"Always the Sun","performer":"Richard Durand","index":{"time":"37:05:50","frames":166925,"seconds":2225,"lenseconds":266,"lentime":"04:26"}},{"title":"Lonely (Original Mix)","performer":"Reeves feat. Alanah","index":{"time":"41:31:35","frames":186860,"seconds":2491,"lenseconds":273,"lentime":"04:33"}},{"title":"My Enemy","performer":"Super8 & Tab feat. Julie Thompson","index":{"time":"46:04:00","frames":207300,"seconds":2764,"lenseconds":278,"lentime":"04:38"}},{"title":"Not Enough Time","performer":"Cosmic Gate feat. Emma Hewitt","index":{"time":"50:42:00","frames":228150,"seconds":3042,"lenseconds":280,"lentime":"04:40"}},{"title":"I Don't Own You","performer":"Armin van Buuren","index":{"time":"55:22:00","frames":249150,"seconds":3322,"lenseconds":316,"lentime":"05:16"}},{"title":"Send Me An Angel (Andy Moor Remix)","performer":"Delerium feat. Miranda Lee Richards","index":{"time":"60:38:00","frames":272850,"seconds":3638,"lenseconds":331,"lentime":"05:31"}},{"title":"Reason","performer":"Melanie C","index":{"time":"66:09:00","frames":297675,"seconds":3969,"lenseconds":254,"lentime":"04:14"}}]}