Carefully constructed music sets for your aural pleasure
Aerodynamix 026 @ Frisky Radio February 2015 mixed by JuanP
Techno / Tech House
1:00:00
techno, tech house
SHOW TRACKLIST
SHOW CUESHEET
SHOW TXT PL

LOAD IN AUDIO PLAYER

1
Cid Inc.
Typhoon (Original Mix)
08:23
2
Sam Paganini
Dusty
05:44
3
Miss Kittin, Dubfire
Exit (Original Mix)
07:39
4
Matador (IE)
Schaffer (Original Mix)
05:37
5
Dosem
Expression
05:06
6
Filterheadz
Flying Colours (Original Mix)
05:51
7
Cirez D
On Off
07:24
8
Sam Paganini
Polyester (Original Mix)
05:21
9
Plastikman
EXposed (Dubfire Remix)
08:55
PERFORMER "VA [Mixed by JuanP]" TITLE "Aerodynamix 026 (February 2015) Frisky Radio" FILE "42-va-aerodynamix_026_mixed_by_juan_prada_friskyradio-feb2015.mp3" WAVE TRACK 01 AUDIO PERFORMER "Cid Inc." TITLE "Typhoon (Original Mix)" INDEX 01 00:00:00 TRACK 02 AUDIO PERFORMER "Sam Paganini" TITLE "Dusty" INDEX 01 08:23:00 TRACK 03 AUDIO PERFORMER "Miss Kittin, Dubfire" TITLE "Exit (Original Mix)" INDEX 01 14:07:00 TRACK 04 AUDIO PERFORMER "Matador (IE)" TITLE "Schaffer (Original Mix)" INDEX 01 21:46:00 TRACK 05 AUDIO PERFORMER "Dosem" TITLE "Expression" INDEX 01 27:23:00 TRACK 06 AUDIO PERFORMER "Filterheadz" TITLE "Flying Colours (Original Mix)" INDEX 01 32:29:00 TRACK 07 AUDIO PERFORMER "Cirez D" TITLE "On Off" INDEX 01 38:20:00 TRACK 08 AUDIO PERFORMER "Sam Paganini" TITLE "Polyester (Original Mix)" INDEX 01 45:44:00 TRACK 09 AUDIO PERFORMER "Plastikman" TITLE "EXposed (Dubfire Remix)" INDEX 01 51:05:00
01 Cid Inc. - Typhoon (Original Mix) 00:00 02 Sam Paganini - Dusty 08:23 03 Miss Kittin, Dubfire - Exit (Original Mix) 14:07 04 Matador (IE) - Schaffer (Original Mix) 21:46 05 Dosem - Expression 27:23 06 Filterheadz - Flying Colours (Original Mix) 32:29 07 Cirez D - On Off 38:20 08 Sam Paganini - Polyester (Original Mix) 45:44 09 Plastikman - EXposed (Dubfire Remix) 51:05
Aerodynamix 026 @ Frisky Radio February 2015 mixed by JuanPdata/42-va-aerodynamix_026_mixed_by_juan_prada_friskyradio-feb2015-500px.pngdata/42-va-aerodynamix_026_mixed_by_juan_prada_friskyradio-feb2015.mp3data/42-va-aerodynamix_026_mixed_by_juan_prada_friskyradio-feb2015.ogg
{"Cuesheet":{"performer":"VA [Mixed by JuanP]","title":"Aerodynamix 026 (February 2015) Frisky Radio","file":"42-va-aerodynamix_026_mixed_by_juan_prada_friskyradio-feb2015.mp3"},"Track":[{"performer":"Cid Inc.","title":"Typhoon (Original Mix)","index":{"time":"00:00:00","frames":0,"seconds":0,"lenseconds":503,"lentime":"08:23"}},{"performer":"Sam Paganini","title":"Dusty","index":{"time":"08:23:00","frames":37725,"seconds":503,"lenseconds":344,"lentime":"05:44"}},{"performer":"Miss Kittin, Dubfire","title":"Exit (Original Mix)","index":{"time":"14:07:00","frames":63525,"seconds":847,"lenseconds":459,"lentime":"07:39"}},{"performer":"Matador (IE)","title":"Schaffer (Original Mix)","index":{"time":"21:46:00","frames":97950,"seconds":1306,"lenseconds":337,"lentime":"05:37"}},{"performer":"Dosem","title":"Expression","index":{"time":"27:23:00","frames":123225,"seconds":1643,"lenseconds":306,"lentime":"05:06"}},{"performer":"Filterheadz","title":"Flying Colours (Original Mix)","index":{"time":"32:29:00","frames":146175,"seconds":1949,"lenseconds":351,"lentime":"05:51"}},{"performer":"Cirez D","title":"On Off","index":{"time":"38:20:00","frames":172500,"seconds":2300,"lenseconds":444,"lentime":"07:24"}},{"performer":"Sam Paganini","title":"Polyester (Original Mix)","index":{"time":"45:44:00","frames":205800,"seconds":2744,"lenseconds":321,"lentime":"05:21"}},{"performer":"Plastikman","title":"EXposed (Dubfire Remix)","index":{"time":"51:05:00","frames":229875,"seconds":3065,"lenseconds":535,"lentime":"08:55"}}]}