Carefully constructed music sets for your aural pleasure
Aerodynamix 025 @ Frisky Radio January 2015 mixed by JuanP
Deep / Progressive House
1:00:00
deep house, progressive house
SHOW TRACKLIST
SHOW CUESHEET
SHOW TXT PL

LOAD IN AUDIO PLAYER

1
Red Sun Rising
Requiem (Alex Vidal Remix)
08:31
2
Phi Phi & Airwave
The Horn (Cid Inc Remix)
07:13
3
Sahar Z & Guy Mantzur
Our Foggy Trips
08:16
4
London Grammar
Hey Now (Sasha Remix)
05:40
5
Will Atkinson
Sharpshooter (Khen Remix)
06:43
6
Twice As Nice
Overture (Guy J Remix)
07:44
7
Guy J
Dizzy Moments
05:41
8
Cid Inc.
Darpa (Original Mix)
05:41
9
Delayers vs. Nari & Milani
Phenomena (JuanP Mix)
04:31
PERFORMER "VA [Mixed by JuanP]" TITLE "Aerodynamix 025 (January 2015) Frisky Radio" FILE "41-va-aerodynamix_025_mixed_by_juan_prada_friskyradio-jan2015.mp3" WAVE TRACK 01 AUDIO PERFORMER "Red Sun Rising" TITLE "Requiem (Alex Vidal Remix)" INDEX 01 00:00:00 TRACK 02 AUDIO PERFORMER "Phi Phi & Airwave" TITLE "The Horn (Cid Inc Remix)" INDEX 01 08:31:00 TRACK 03 AUDIO PERFORMER "Sahar Z & Guy Mantzur" TITLE "Our Foggy Trips" INDEX 01 15:44:00 TRACK 04 AUDIO PERFORMER "London Grammar" TITLE "Hey Now (Sasha Remix)" INDEX 01 24:00:00 TRACK 05 AUDIO PERFORMER "Will Atkinson" TITLE "Sharpshooter (Khen Remix)" INDEX 01 29:40:20 TRACK 06 AUDIO PERFORMER "Twice As Nice" TITLE "Overture (Guy J Remix)" INDEX 01 36:23:00 TRACK 07 AUDIO PERFORMER "Guy J" TITLE "Dizzy Moments" INDEX 01 44:07:20 TRACK 08 AUDIO PERFORMER "Cid Inc." TITLE "Darpa (Original Mix)" INDEX 01 49:48:00 TRACK 09 AUDIO PERFORMER "Delayers vs. Nari & Milani" TITLE "Phenomena (JuanP Mix)" INDEX 01 55:29:00
01 Red Sun Rising - Requiem (Alex Vidal Remix) 00:00 02 Phi Phi & Airwave - The Horn (Cid Inc Remix) 08:31 03 Sahar Z & Guy Mantzur - Our Foggy Trips 15:44 04 London Grammar - Hey Now (Sasha Remix) 24:00 05 Will Atkinson - Sharpshooter (Khen Remix) 29:40 06 Twice As Nice - Overture (Guy J Remix) 36:23 07 Guy J - Dizzy Moments 44:07 08 Cid Inc. - Darpa (Original Mix) 49:48 09 Delayers vs. Nari & Milani - Phenomena (JuanP Mix) 55:29
Aerodynamix 025 @ Frisky Radio January 2015 mixed by JuanPdata/41-va-aerodynamix_025_mixed_by_juan_prada_friskyradio-jan2015-500px.pngdata/41-va-aerodynamix_025_mixed_by_juan_prada_friskyradio-jan2015.mp3data/41-va-aerodynamix_025_mixed_by_juan_prada_friskyradio-jan2015.ogg
{"Cuesheet":{"performer":"VA [Mixed by JuanP]","title":"Aerodynamix 025 (January 2015) Frisky Radio","file":"41-va-aerodynamix_025_mixed_by_juan_prada_friskyradio-jan2015.mp3"},"Track":[{"performer":"Red Sun Rising","title":"Requiem (Alex Vidal Remix)","index":{"time":"00:00:00","frames":0,"seconds":0,"lenseconds":511,"lentime":"08:31"}},{"performer":"Phi Phi & Airwave","title":"The Horn (Cid Inc Remix)","index":{"time":"08:31:00","frames":38325,"seconds":511,"lenseconds":433,"lentime":"07:13"}},{"performer":"Sahar Z & Guy Mantzur","title":"Our Foggy Trips","index":{"time":"15:44:00","frames":70800,"seconds":944,"lenseconds":496,"lentime":"08:16"}},{"performer":"London Grammar","title":"Hey Now (Sasha Remix)","index":{"time":"24:00:00","frames":108000,"seconds":1440,"lenseconds":340,"lentime":"05:40"}},{"performer":"Will Atkinson","title":"Sharpshooter (Khen Remix)","index":{"time":"29:40:20","frames":133520,"seconds":1780,"lenseconds":403,"lentime":"06:43"}},{"performer":"Twice As Nice","title":"Overture (Guy J Remix)","index":{"time":"36:23:00","frames":163725,"seconds":2183,"lenseconds":464,"lentime":"07:44"}},{"performer":"Guy J","title":"Dizzy Moments","index":{"time":"44:07:20","frames":198545,"seconds":2647,"lenseconds":341,"lentime":"05:41"}},{"performer":"Cid Inc.","title":"Darpa (Original Mix)","index":{"time":"49:48:00","frames":224100,"seconds":2988,"lenseconds":341,"lentime":"05:41"}},{"performer":"Delayers vs. Nari & Milani","title":"Phenomena (JuanP Mix)","index":{"time":"55:29:00","frames":249675,"seconds":3329,"lenseconds":271,"lentime":"04:31"}}]}