Carefully constructed music sets for your aural pleasure
2010 Vocal Progressive House Retrospective REWORK
Vocal Dance / Prog House / Trance
1:18:13
vocal dance, vocal prog-house, vocal trance
SHOW TRACKLIST
SHOW CUESHEET
SHOW TXT PL

LOAD IN AUDIO PLAYER

1
Tiesto Feat. Priscilla Ahn
I Am Strong
05:37
2
Dr Kucho and Adonis Alvarez
La tarde se ha puesto triste (Original Mix)
05:27
3
Kleerup feat Robyn
With Every Heartbeat (Pete Tong Dave Spoon Wonderland Remix)
04:41
4
Way Out West
Surrender (Henry Saiz Remix)
07:01
5
Offer Nissim Feat. Maya
Thats The Way I Like It (Original)
06:42
6
Offer Nissim Feat. Kristine W
Save My Soul (JuanP Remix)
05:29
7
Serge Devant Feat. Hadley
Addicted (Club Mix)
06:13
8
Blank & Jones
Still The Same (Club Rome Mix)
04:31
9
Armin Van Buuren feat Audrey Gallagher
Hold On To Me
06:03
10
DJ Tatana
Perfect Lies (feat. Evelyn)
03:50
11
Armin Van Buuren with Dj Shah feat Chris Jones
Going Wrong
04:43
12
Fragma
Tocas Miracle (Inpetto Remix)
06:43
13
Felix Stone feat. Goldillox
In This World (Def Digital Elevation mix)
05:52
14
Richard Durand
No Way Home
05:21
PERFORMER "VA [Mixed by JuanP]" TITLE "2010 Vocal Progressive House Retrospective 2014 REMAKE" FILE "40-va-2010_vphr_2014_remake_mixed_by_juanp-2014.mp3" WAVE TRACK 01 AUDIO PERFORMER "Tiesto Feat. Priscilla Ahn" TITLE "I Am Strong" INDEX 01 00:00:00 TRACK 02 AUDIO PERFORMER "Dr Kucho and Adonis Alvarez" TITLE "La tarde se ha puesto triste (Original Mix)" INDEX 01 05:37:00 TRACK 03 AUDIO PERFORMER "Kleerup feat Robyn" TITLE "With Every Heartbeat (Pete Tong Dave Spoon Wonderland Remix)" INDEX 01 11:04:10 TRACK 04 AUDIO PERFORMER "Way Out West" TITLE "Surrender (Henry Saiz Remix)" INDEX 01 15:45:00 TRACK 05 AUDIO PERFORMER "Offer Nissim Feat. Maya" TITLE "Thats The Way I Like It (Original)" INDEX 01 22:46:30 TRACK 06 AUDIO PERFORMER "Offer Nissim Feat. Kristine W" TITLE "Save My Soul (JuanP Remix)" INDEX 01 29:28:00 TRACK 07 AUDIO PERFORMER "Serge Devant Feat. Hadley" TITLE "Addicted (Club Mix)" INDEX 01 34:57:00 TRACK 08 AUDIO PERFORMER "Blank & Jones" TITLE "Still The Same (Club Rome Mix)" INDEX 01 41:10:00 TRACK 09 AUDIO PERFORMER "Armin Van Buuren feat Audrey Gallagher" TITLE "Hold On To Me" INDEX 01 45:41:00 TRACK 10 AUDIO PERFORMER "DJ Tatana" TITLE "Perfect Lies (feat. Evelyn)" INDEX 01 51:44:00 TRACK 11 AUDIO PERFORMER "Armin Van Buuren with Dj Shah feat Chris Jones" TITLE "Going Wrong" INDEX 01 55:34:00 TRACK 12 AUDIO PERFORMER "Fragma" TITLE "Tocas Miracle (Inpetto Remix)" INDEX 01 60:17:30 TRACK 13 AUDIO PERFORMER "Felix Stone feat. Goldillox" TITLE "In This World (Def Digital Elevation mix)" INDEX 01 67:00:00 TRACK 14 AUDIO PERFORMER "Richard Durand" TITLE "No Way Home" INDEX 01 72:52:00
01 Tiesto Feat. Priscilla Ahn - I Am Strong 00:00 02 Dr Kucho and Adonis Alvarez - La tarde se ha puesto triste (Original Mix) 05:37 03 Kleerup feat Robyn - With Every Heartbeat (Pete Tong Dave Spoon Wonderland Remix) 11:04 04 Way Out West - Surrender (Henry Saiz Remix) 15:45 05 Offer Nissim Feat. Maya - Thats The Way I Like It (Original) 22:46 06 Offer Nissim Feat. Kristine W - Save My Soul (JuanP Remix) 29:28 07 Serge Devant Feat. Hadley - Addicted (Club Mix) 34:57 08 Blank & Jones - Still The Same (Club Rome Mix) 41:10 09 Armin Van Buuren feat Audrey Gallagher - Hold On To Me 45:41 10 DJ Tatana - Perfect Lies (feat. Evelyn) 51:44 11 Armin Van Buuren with Dj Shah feat Chris Jones - Going Wrong 55:34 12 Fragma - Tocas Miracle (Inpetto Remix) 60:17 13 Felix Stone feat. Goldillox - In This World (Def Digital Elevation mix) 67:00 14 Richard Durand - No Way Home 72:52
2010 Vocal Progressive House Retrospective REWORKdata/40-va-2010_vphr_2014_remake_mixed_by_juanp-2014-500px.pngdata/40-va-2010_vphr_2014_remake_mixed_by_juanp-2014.mp3data/40-va-2010_vphr_2014_remake_mixed_by_juanp-2014.ogg
{"Cuesheet":{"performer":"VA [Mixed by JuanP]","title":"2010 Vocal Progressive House Retrospective 2014 REMAKE","file":"40-va-2010_vphr_2014_remake_mixed_by_juanp-2014.mp3"},"Track":[{"performer":"Tiesto Feat. Priscilla Ahn","title":"I Am Strong","index":{"time":"00:00:00","frames":0,"seconds":0,"lenseconds":337,"lentime":"05:37"}},{"performer":"Dr Kucho and Adonis Alvarez","title":"La tarde se ha puesto triste (Original Mix)","index":{"time":"05:37:00","frames":25275,"seconds":337,"lenseconds":327,"lentime":"05:27"}},{"performer":"Kleerup feat Robyn","title":"With Every Heartbeat (Pete Tong Dave Spoon Wonderland Remix)","index":{"time":"11:04:10","frames":49810,"seconds":664,"lenseconds":281,"lentime":"04:41"}},{"performer":"Way Out West","title":"Surrender (Henry Saiz Remix)","index":{"time":"15:45:00","frames":70875,"seconds":945,"lenseconds":421,"lentime":"07:01"}},{"performer":"Offer Nissim Feat. Maya","title":"Thats The Way I Like It (Original)","index":{"time":"22:46:30","frames":102480,"seconds":1366,"lenseconds":402,"lentime":"06:42"}},{"performer":"Offer Nissim Feat. Kristine W","title":"Save My Soul (JuanP Remix)","index":{"time":"29:28:00","frames":132600,"seconds":1768,"lenseconds":329,"lentime":"05:29"}},{"performer":"Serge Devant Feat. Hadley","title":"Addicted (Club Mix)","index":{"time":"34:57:00","frames":157275,"seconds":2097,"lenseconds":373,"lentime":"06:13"}},{"performer":"Blank & Jones","title":"Still The Same (Club Rome Mix)","index":{"time":"41:10:00","frames":185250,"seconds":2470,"lenseconds":271,"lentime":"04:31"}},{"performer":"Armin Van Buuren feat Audrey Gallagher","title":"Hold On To Me","index":{"time":"45:41:00","frames":205575,"seconds":2741,"lenseconds":363,"lentime":"06:03"}},{"performer":"DJ Tatana","title":"Perfect Lies (feat. Evelyn)","index":{"time":"51:44:00","frames":232800,"seconds":3104,"lenseconds":230,"lentime":"03:50"}},{"performer":"Armin Van Buuren with Dj Shah feat Chris Jones","title":"Going Wrong","index":{"time":"55:34:00","frames":250050,"seconds":3334,"lenseconds":283,"lentime":"04:43"}},{"performer":"Fragma","title":"Tocas Miracle (Inpetto Remix)","index":{"time":"60:17:30","frames":271305,"seconds":3617,"lenseconds":403,"lentime":"06:43"}},{"performer":"Felix Stone feat. Goldillox","title":"In This World (Def Digital Elevation mix)","index":{"time":"67:00:00","frames":301500,"seconds":4020,"lenseconds":352,"lentime":"05:52"}},{"performer":"Richard Durand","title":"No Way Home","index":{"time":"72:52:00","frames":327900,"seconds":4372,"lenseconds":321,"lentime":"05:21"}}]}