Carefully constructed music sets for your aural pleasure
Aerodynamix 024 @ Frisky Radio December 2014 mixed by JuanP
Nu Disco, Deep House
1:00:00
nu disco, deep house
SHOW TRACKLIST
SHOW CUESHEET
SHOW TXT PL

LOAD IN AUDIO PLAYER

1
Elektromekanik
Are You Alright (Original Mix)
04:21
2
Face Off
Let It All Down (Vijay & Sofia Zlatko Remix)
05:53
3
Vincenzo feat. Minako
Just Like Heaven (Original Mix)
04:06
4
Blank & Jones
Pasilada (with Afro Medusa
05:34
5
Just Kiddin
Thinking About It (Club Mix)
03:10
6
West.K feat. Nathalie
Desire (DJ Runo Remix)
05:17
7
Matvey Emerson feat. Rene
Alright (Original Mix)
05:18
8
Jay Haze & Signor Andreoni
Take A Dip (Original Mix)
05:17
9
Henry Saiz
I Can Feel It Coming (Original Mix)
06:05
10
Grand Paradis
Lonely (Wankers Hopeful Dub)
04:59
11
Chris Malinchak
If U Got It (Extended Mix)
04:51
12
EDX
Cool You Off (Original Mix)
05:09
PERFORMER "VA [Mixed by JuanP]" TITLE "Aerodynamix 024 (December 2014) Frisky Radio" FILE "39-va-aerodynamix_024_mixed_by_juan_prada_friskyradio-dec2014.mp3" WAVE TRACK 01 AUDIO PERFORMER "Elektromekanik" TITLE "Are You Alright (Original Mix)" INDEX 01 00:00:00 TRACK 02 AUDIO PERFORMER "Face Off" TITLE "Let It All Down (Vijay & Sofia Zlatko Remix)" INDEX 01 04:21:50 TRACK 03 AUDIO PERFORMER "Vincenzo feat. Minako" TITLE "Just Like Heaven (Original Mix)" INDEX 01 10:14:50 TRACK 04 AUDIO PERFORMER "Blank & Jones" TITLE "Pasilada (with Afro Medusa" INDEX 01 14:20:50 TRACK 05 AUDIO PERFORMER "Just Kiddin" TITLE "Thinking About It (Club Mix)" INDEX 01 19:54:00 TRACK 06 AUDIO PERFORMER "West.K feat. Nathalie" TITLE "Desire (DJ Runo Remix)" INDEX 01 23:04:10 TRACK 07 AUDIO PERFORMER "Matvey Emerson feat. Rene" TITLE "Alright (Original Mix)" INDEX 01 28:21:50 TRACK 08 AUDIO PERFORMER "Jay Haze & Signor Andreoni" TITLE "Take A Dip (Original Mix)" INDEX 01 33:39:00 TRACK 09 AUDIO PERFORMER "Henry Saiz" TITLE "I Can Feel It Coming (Original Mix)" INDEX 01 38:56:20 TRACK 10 AUDIO PERFORMER "Grand Paradis" TITLE "Lonely (Wankers Hopeful Dub)" INDEX 01 45:01:10 TRACK 11 AUDIO PERFORMER "Chris Malinchak" TITLE "If U Got It (Extended Mix)" INDEX 01 50:00:20 TRACK 12 AUDIO PERFORMER "EDX" TITLE "Cool You Off (Original Mix)" INDEX 01 54:51:30
01 Elektromekanik - Are You Alright (Original Mix) 00:00 02 Face Off - Let It All Down (Vijay & Sofia Zlatko Remix) 04:21 03 Vincenzo feat. Minako - Just Like Heaven (Original Mix) 10:14 04 Blank & Jones - Pasilada (with Afro Medusa 14:20 05 Just Kiddin - Thinking About It (Club Mix) 19:54 06 West.K feat. Nathalie - Desire (DJ Runo Remix) 23:04 07 Matvey Emerson feat. Rene - Alright (Original Mix) 28:21 08 Jay Haze & Signor Andreoni - Take A Dip (Original Mix) 33:39 09 Henry Saiz - I Can Feel It Coming (Original Mix) 38:56 10 Grand Paradis - Lonely (Wankers Hopeful Dub) 45:01 11 Chris Malinchak - If U Got It (Extended Mix) 50:00 12 EDX - Cool You Off (Original Mix) 54:51
Aerodynamix 024 @ Frisky Radio December 2014 mixed by JuanPdata/39-va-aerodynamix_024_mixed_by_juan_prada_friskyradio-dec2014-500px.pngdata/39-va-aerodynamix_024_mixed_by_juan_prada_friskyradio-dec2014.mp3data/39-va-aerodynamix_024_mixed_by_juan_prada_friskyradio-dec2014.ogg
{"Cuesheet":{"performer":"VA [Mixed by JuanP]","title":"Aerodynamix 024 (December 2014) Frisky Radio","file":"39-va-aerodynamix_024_mixed_by_juan_prada_friskyradio-dec2014.mp3"},"Track":[{"performer":"Elektromekanik","title":"Are You Alright (Original Mix)","index":{"time":"00:00:00","frames":0,"seconds":0,"lenseconds":261,"lentime":"04:21"}},{"performer":"Face Off","title":"Let It All Down (Vijay & Sofia Zlatko Remix)","index":{"time":"04:21:50","frames":19625,"seconds":261,"lenseconds":353,"lentime":"05:53"}},{"performer":"Vincenzo feat. Minako","title":"Just Like Heaven (Original Mix)","index":{"time":"10:14:50","frames":46100,"seconds":614,"lenseconds":246,"lentime":"04:06"}},{"performer":"Blank & Jones","title":"Pasilada (with Afro Medusa","index":{"time":"14:20:50","frames":64550,"seconds":860,"lenseconds":334,"lentime":"05:34"}},{"performer":"Just Kiddin","title":"Thinking About It (Club Mix)","index":{"time":"19:54:00","frames":89550,"seconds":1194,"lenseconds":190,"lentime":"03:10"}},{"performer":"West.K feat. Nathalie","title":"Desire (DJ Runo Remix)","index":{"time":"23:04:10","frames":103810,"seconds":1384,"lenseconds":317,"lentime":"05:17"}},{"performer":"Matvey Emerson feat. Rene","title":"Alright (Original Mix)","index":{"time":"28:21:50","frames":127625,"seconds":1701,"lenseconds":318,"lentime":"05:18"}},{"performer":"Jay Haze & Signor Andreoni","title":"Take A Dip (Original Mix)","index":{"time":"33:39:00","frames":151425,"seconds":2019,"lenseconds":317,"lentime":"05:17"}},{"performer":"Henry Saiz","title":"I Can Feel It Coming (Original Mix)","index":{"time":"38:56:20","frames":175220,"seconds":2336,"lenseconds":365,"lentime":"06:05"}},{"performer":"Grand Paradis","title":"Lonely (Wankers Hopeful Dub)","index":{"time":"45:01:10","frames":202585,"seconds":2701,"lenseconds":299,"lentime":"04:59"}},{"performer":"Chris Malinchak","title":"If U Got It (Extended Mix)","index":{"time":"50:00:20","frames":225020,"seconds":3000,"lenseconds":291,"lentime":"04:51"}},{"performer":"EDX","title":"Cool You Off (Original Mix)","index":{"time":"54:51:30","frames":246855,"seconds":3291,"lenseconds":309,"lentime":"05:09"}}]}