Carefully constructed music sets for your aural pleasure
Aerodynamix 023 @ Frisky Radio November 2014 mixed by JuanP
Progressive Vocal House Trance
1:00:00
progressive, vocal, house, trance
SHOW TRACKLIST
SHOW CUESHEET
SHOW TXT PL

LOAD IN AUDIO PLAYER

1
Super8 & Tab
Forever
01:07
2
Royksopp
Sordid Affair (JuanP Bootleg Remix)
05:30
3
Super8 & Tab ft. Jan Burton
Who Needs Pain
04:15
4
Aplex Feat. Roman Gurov
Will Be Free (Original Mix)
05:30
5
Axel G, Miss Karine
History (Original Mix)
05:00
6
Max Freegrant
Oasis (Original Mix)
05:45
7
Ronski Speed & Tony Awake Ft. Gracie Ho
Not Easy (Album Version)
04:30
8
Kyau And Albert
Encounter
03:45
9
Deadmau5
Pets
06:30
10
Blood Groove & Kikis
Falling (Original Mix)
04:15
11
Kamil Esten
Aquatica (Original Mix)
05:22
12
Anry
Rise Up (Original Mix)
05:45
13
Kyau & Albert Feat. Ronski Speed
Euphonia (Shato & Paul Rockseek Remix)
02:46
PERFORMER "VA [Mixed by JuanP]" TITLE "Aerodynamix 023 (November 2014) Frisky Radio" FILE "38-va-aerodynamix_023_mixed_by_juan_prada_friskyradio-nov2014.mp3" WAVE TRACK 01 AUDIO PERFORMER "Super8 & Tab" TITLE "Forever" INDEX 01 00:00:00 TRACK 02 AUDIO PERFORMER "Royksopp" TITLE "Sordid Affair (JuanP Bootleg Remix)" INDEX 01 01:07:20 TRACK 03 AUDIO PERFORMER "Super8 & Tab ft. Jan Burton" TITLE "Who Needs Pain" INDEX 01 06:37:20 TRACK 04 AUDIO PERFORMER "Aplex Feat. Roman Gurov" TITLE "Will Be Free (Original Mix)" INDEX 01 10:52:20 TRACK 05 AUDIO PERFORMER "Axel G, Miss Karine" TITLE "History (Original Mix)" INDEX 01 16:22:20 TRACK 06 AUDIO PERFORMER "Max Freegrant" TITLE "Oasis (Original Mix)" INDEX 01 21:22:20 TRACK 07 AUDIO PERFORMER "Ronski Speed & Tony Awake Ft. Gracie Ho" TITLE "Not Easy (Album Version)" INDEX 01 27:07:20 TRACK 08 AUDIO PERFORMER "Kyau And Albert" TITLE "Encounter" INDEX 01 31:37:20 TRACK 09 AUDIO PERFORMER "Deadmau5" TITLE "Pets" INDEX 01 35:22:20 TRACK 10 AUDIO PERFORMER "Blood Groove & Kikis" TITLE "Falling (Original Mix)" INDEX 01 41:52:20 TRACK 11 AUDIO PERFORMER "Kamil Esten" TITLE "Aquatica (Original Mix)" INDEX 01 46:07:20 TRACK 12 AUDIO PERFORMER "Anry" TITLE "Rise Up (Original Mix)" INDEX 01 51:29:80 TRACK 13 AUDIO PERFORMER "Kyau & Albert Feat. Ronski Speed" TITLE "Euphonia (Shato & Paul Rockseek Remix)" INDEX 01 57:14:80
01 Super8 & Tab - Forever 00:00 02 Royksopp - Sordid Affair (JuanP Bootleg Remix) 01:07 03 Super8 & Tab ft. Jan Burton - Who Needs Pain 06:37 04 Aplex Feat. Roman Gurov - Will Be Free (Original Mix) 10:52 05 Axel G, Miss Karine - History (Original Mix) 16:22 06 Max Freegrant - Oasis (Original Mix) 21:22 07 Ronski Speed & Tony Awake Ft. Gracie Ho - Not Easy (Album Version) 27:07 08 Kyau And Albert - Encounter 31:37 09 Deadmau5 - Pets 35:22 10 Blood Groove & Kikis - Falling (Original Mix) 41:52 11 Kamil Esten - Aquatica (Original Mix) 46:07 12 Anry - Rise Up (Original Mix) 51:29 13 Kyau & Albert Feat. Ronski Speed - Euphonia (Shato & Paul Rockseek Remix) 57:14
Aerodynamix 023 @ Frisky Radio November 2014 mixed by JuanPdata/38-va-aerodynamix_023_mixed_by_juan_prada_friskyradio-nov2014-500px.pngdata/38-va-aerodynamix_023_mixed_by_juan_prada_friskyradio-nov2014.mp3data/38-va-aerodynamix_023_mixed_by_juan_prada_friskyradio-nov2014.ogg
{"Cuesheet":{"performer":"VA [Mixed by JuanP]","title":"Aerodynamix 023 (November 2014) Frisky Radio","file":"38-va-aerodynamix_023_mixed_by_juan_prada_friskyradio-nov2014.mp3"},"Track":[{"performer":"Super8 & Tab","title":"Forever","index":{"time":"00:00:00","frames":0,"seconds":0,"lenseconds":67,"lentime":"01:07"}},{"performer":"Royksopp","title":"Sordid Affair (JuanP Bootleg Remix)","index":{"time":"01:07:20","frames":5045,"seconds":67,"lenseconds":330,"lentime":"05:30"}},{"performer":"Super8 & Tab ft. Jan Burton","title":"Who Needs Pain","index":{"time":"06:37:20","frames":29795,"seconds":397,"lenseconds":255,"lentime":"04:15"}},{"performer":"Aplex Feat. Roman Gurov","title":"Will Be Free (Original Mix)","index":{"time":"10:52:20","frames":48920,"seconds":652,"lenseconds":330,"lentime":"05:30"}},{"performer":"Axel G, Miss Karine","title":"History (Original Mix)","index":{"time":"16:22:20","frames":73670,"seconds":982,"lenseconds":300,"lentime":"05:00"}},{"performer":"Max Freegrant","title":"Oasis (Original Mix)","index":{"time":"21:22:20","frames":96170,"seconds":1282,"lenseconds":345,"lentime":"05:45"}},{"performer":"Ronski Speed & Tony Awake Ft. Gracie Ho","title":"Not Easy (Album Version)","index":{"time":"27:07:20","frames":122045,"seconds":1627,"lenseconds":270,"lentime":"04:30"}},{"performer":"Kyau And Albert","title":"Encounter","index":{"time":"31:37:20","frames":142295,"seconds":1897,"lenseconds":225,"lentime":"03:45"}},{"performer":"Deadmau5","title":"Pets","index":{"time":"35:22:20","frames":159170,"seconds":2122,"lenseconds":390,"lentime":"06:30"}},{"performer":"Blood Groove & Kikis","title":"Falling (Original Mix)","index":{"time":"41:52:20","frames":188420,"seconds":2512,"lenseconds":255,"lentime":"04:15"}},{"performer":"Kamil Esten","title":"Aquatica (Original Mix)","index":{"time":"46:07:20","frames":207545,"seconds":2767,"lenseconds":322,"lentime":"05:22"}},{"performer":"Anry","title":"Rise Up (Original Mix)","index":{"time":"51:29:80","frames":231755,"seconds":3089,"lenseconds":345,"lentime":"05:45"}},{"performer":"Kyau & Albert Feat. Ronski Speed","title":"Euphonia (Shato & Paul Rockseek Remix)","index":{"time":"57:14:80","frames":257630,"seconds":3434,"lenseconds":166,"lentime":"02:46"}}]}