Carefully constructed music sets for your aural pleasure
Aerodynamix 022 @ Frisky Radio October 2014 mixed by JuanP
Nu Disco, Deep House
1:00:00
nu disco, deep house
SHOW TRACKLIST
SHOW CUESHEET
SHOW TXT PL

LOAD IN AUDIO PLAYER

1
Air
Run
04:15
2
Andrey Exx, Diva Vocal, Troitski
Get Up Stand Up (Original Mix)
05:50
3
David Durango
Call Me Whatever You Want (Original Mix)
04:36
4
Amanic
Pictures & Smells (Mappey Remix)
05:22
5
Mike Mago & Dragonette
Outlines (Original Mix)
03:41
6
Super Flu Monkey Safari
Me Roar (FormatB Remix)
06:11
7
Andy Weed
Womb (Anton MAKe Remix)
06:58
8
QuiQui
Autumn Equinox (Original Mix)
07:41
9
Guy Mantzur & Sahar Z
Patterns (Orginal Mix)
08:33
10
Andrez
In Your Afterglow (Original Mix)
06:53
PERFORMER "VA [Mixed by JuanP]" TITLE "Aerodynamix 022 (October 2014) Frisky Radio" FILE "37-va-aerodynamix_022_mixed_by_juan_prada_friskyradio-oct2014.mp3" WAVE TRACK 01 AUDIO PERFORMER "Air" TITLE "Run" INDEX 01 00:00:00 TRACK 02 AUDIO PERFORMER "Andrey Exx, Diva Vocal, Troitski" TITLE "Get Up Stand Up (Original Mix)" INDEX 01 04:15:20 TRACK 03 AUDIO PERFORMER "David Durango" TITLE "Call Me Whatever You Want (Original Mix)" INDEX 01 10:05:30 TRACK 04 AUDIO PERFORMER "Amanic" TITLE "Pictures & Smells (Mappey Remix)" INDEX 01 14:41:00 TRACK 05 AUDIO PERFORMER "Mike Mago & Dragonette" TITLE "Outlines (Original Mix)" INDEX 01 20:03:40 TRACK 06 AUDIO PERFORMER "Super Flu Monkey Safari" TITLE "Me Roar (FormatB Remix)" INDEX 01 23:44:00 TRACK 07 AUDIO PERFORMER "Andy Weed" TITLE "Womb (Anton MAKe Remix)" INDEX 01 29:55:50 TRACK 08 AUDIO PERFORMER "QuiQui" TITLE "Autumn Equinox (Original Mix)" INDEX 01 36:53:50 TRACK 09 AUDIO PERFORMER "Guy Mantzur & Sahar Z" TITLE "Patterns (Orginal Mix)" INDEX 01 44:34:00 TRACK 10 AUDIO PERFORMER "Andrez" TITLE "In Your Afterglow (Original Mix)" INDEX 01 53:07:50
01 Air - Run 00:00 02 Andrey Exx, Diva Vocal, Troitski - Get Up Stand Up (Original Mix) 04:15 03 David Durango - Call Me Whatever You Want (Original Mix) 10:05 04 Amanic - Pictures & Smells (Mappey Remix) 14:41 05 Mike Mago & Dragonette - Outlines (Original Mix) 20:03 06 Super Flu Monkey Safari - Me Roar (FormatB Remix) 23:44 07 Andy Weed - Womb (Anton MAKe Remix) 29:55 08 QuiQui - Autumn Equinox (Original Mix) 36:53 09 Guy Mantzur & Sahar Z - Patterns (Orginal Mix) 44:34 10 Andrez - In Your Afterglow (Original Mix) 53:07
Aerodynamix 022 @ Frisky Radio October 2014 mixed by JuanPdata/37-va-aerodynamix_022_mixed_by_juan_prada_friskyradio-oct2014-500px.pngdata/37-va-aerodynamix_022_mixed_by_juan_prada_friskyradio-oct2014.mp3data/37-va-aerodynamix_022_mixed_by_juan_prada_friskyradio-oct2014.ogg
{"Cuesheet":{"performer":"VA [Mixed by JuanP]","title":"Aerodynamix 022 (October 2014) Frisky Radio","file":"37-va-aerodynamix_022_mixed_by_juan_prada_friskyradio-oct2014.mp3"},"Track":[{"performer":"Air","title":"Run","index":{"time":"00:00:00","frames":0,"seconds":0,"lenseconds":255,"lentime":"04:15"}},{"performer":"Andrey Exx, Diva Vocal, Troitski","title":"Get Up Stand Up (Original Mix)","index":{"time":"04:15:20","frames":19145,"seconds":255,"lenseconds":350,"lentime":"05:50"}},{"performer":"David Durango","title":"Call Me Whatever You Want (Original Mix)","index":{"time":"10:05:30","frames":45405,"seconds":605,"lenseconds":276,"lentime":"04:36"}},{"performer":"Amanic","title":"Pictures & Smells (Mappey Remix)","index":{"time":"14:41:00","frames":66075,"seconds":881,"lenseconds":322,"lentime":"05:22"}},{"performer":"Mike Mago & Dragonette","title":"Outlines (Original Mix)","index":{"time":"20:03:40","frames":90265,"seconds":1203,"lenseconds":221,"lentime":"03:41"}},{"performer":"Super Flu Monkey Safari","title":"Me Roar (FormatB Remix)","index":{"time":"23:44:00","frames":106800,"seconds":1424,"lenseconds":371,"lentime":"06:11"}},{"performer":"Andy Weed","title":"Womb (Anton MAKe Remix)","index":{"time":"29:55:50","frames":134675,"seconds":1795,"lenseconds":418,"lentime":"06:58"}},{"performer":"QuiQui","title":"Autumn Equinox (Original Mix)","index":{"time":"36:53:50","frames":166025,"seconds":2213,"lenseconds":461,"lentime":"07:41"}},{"performer":"Guy Mantzur & Sahar Z","title":"Patterns (Orginal Mix)","index":{"time":"44:34:00","frames":200550,"seconds":2674,"lenseconds":513,"lentime":"08:33"}},{"performer":"Andrez","title":"In Your Afterglow (Original Mix)","index":{"time":"53:07:50","frames":239075,"seconds":3187,"lenseconds":413,"lentime":"06:53"}}]}