Carefully constructed music sets for your aural pleasure
Aerodynamix 019 @ Frisky Radio July 2014 mixed by JuanP
Progressive House
1:00:00
progressive house
SHOW TRACKLIST
SHOW CUESHEET
SHOW TXT PL

LOAD IN AUDIO PLAYER

1
qoob
Apollo 17 (Original Mix)
08:00
2
Royksopp
Tricky Tricky (Beyond Deep Remix)
05:45
3
Jean Edouard Lipa
Because I Was Born In 1980 (Marcel Cooper Revisited Mix)
04:30
4
Oliver Liss
Irene (Original Mix)
05:15
5
Dan Norvan
Dont Forget Me (Nik Fenix Remix)
04:30
6
Mart K
Beach (Original Mix)
06:45
7
Jesse Suun
Velvety (Original Mix)
05:00
8
Reflekt feat. Delline Bass
Need To Feel Loved (Adam K and Soha Vocal Mix)
06:00
9
Deadmau5 ft. Colleen DAgostino
Drop The Poptart w Arcadia w Somewhere Up Here (Mashup)
14:15
PERFORMER "VA [Mixed by JuanP]" TITLE "Aerodynamix 019 (July 2014) Frisky Radio" FILE "34-va-aerodynamix_019_mixed_by_juan_prada_friskyradio-jul2014.mp3" WAVE TRACK 01 AUDIO PERFORMER "qoob" TITLE "Apollo 17 (Original Mix)" INDEX 01 00:00:00 TRACK 02 AUDIO PERFORMER "Royksopp" TITLE "Tricky Tricky (Beyond Deep Remix)" INDEX 01 08:00:00 TRACK 03 AUDIO PERFORMER "Jean Edouard Lipa" TITLE "Because I Was Born In 1980 (Marcel Cooper Revisited Mix)" INDEX 01 13:45:00 TRACK 04 AUDIO PERFORMER "Oliver Liss" TITLE "Irene (Original Mix)" INDEX 01 18:15:00 TRACK 05 AUDIO PERFORMER "Dan Norvan" TITLE "Dont Forget Me (Nik Fenix Remix)" INDEX 01 23:30:00 TRACK 06 AUDIO PERFORMER "Mart K" TITLE "Beach (Original Mix)" INDEX 01 28:00:00 TRACK 07 AUDIO PERFORMER "Jesse Suun" TITLE "Velvety (Original Mix)" INDEX 01 34:45:00 TRACK 08 AUDIO PERFORMER "Reflekt feat. Delline Bass" TITLE "Need To Feel Loved (Adam K and Soha Vocal Mix)" INDEX 01 39:45:00 TRACK 09 AUDIO PERFORMER "Deadmau5 ft. Colleen DAgostino" TITLE "Drop The Poptart w Arcadia w Somewhere Up Here (Mashup)" INDEX 01 45:45:00
01 qoob - Apollo 17 (Original Mix) 00:00 02 Royksopp - Tricky Tricky (Beyond Deep Remix) 08:00 03 Jean Edouard Lipa - Because I Was Born In 1980 (Marcel Cooper Revisited Mix) 13:45 04 Oliver Liss - Irene (Original Mix) 18:15 05 Dan Norvan - Dont Forget Me (Nik Fenix Remix) 23:30 06 Mart K - Beach (Original Mix) 28:00 07 Jesse Suun - Velvety (Original Mix) 34:45 08 Reflekt feat. Delline Bass - Need To Feel Loved (Adam K and Soha Vocal Mix) 39:45 09 Deadmau5 ft. Colleen DAgostino - Drop The Poptart w Arcadia w Somewhere Up Here (Mashup) 45:45
Aerodynamix 019 @ Frisky Radio July 2014 mixed by JuanPdata/34-va-aerodynamix_019_mixed_by_juan_prada_friskyradio-jul2014-500px.pngdata/34-va-aerodynamix_019_mixed_by_juan_prada_friskyradio-jul2014.mp3data/34-va-aerodynamix_019_mixed_by_juan_prada_friskyradio-jul2014.ogg
{"Cuesheet":{"performer":"VA [Mixed by JuanP]","title":"Aerodynamix 019 (July 2014) Frisky Radio","file":"34-va-aerodynamix_019_mixed_by_juan_prada_friskyradio-jul2014.mp3"},"Track":[{"performer":"qoob","title":"Apollo 17 (Original Mix)","index":{"time":"00:00:00","frames":0,"seconds":0,"lenseconds":480,"lentime":"08:00"}},{"performer":"Royksopp","title":"Tricky Tricky (Beyond Deep Remix)","index":{"time":"08:00:00","frames":36000,"seconds":480,"lenseconds":345,"lentime":"05:45"}},{"performer":"Jean Edouard Lipa","title":"Because I Was Born In 1980 (Marcel Cooper Revisited Mix)","index":{"time":"13:45:00","frames":61875,"seconds":825,"lenseconds":270,"lentime":"04:30"}},{"performer":"Oliver Liss","title":"Irene (Original Mix)","index":{"time":"18:15:00","frames":82125,"seconds":1095,"lenseconds":315,"lentime":"05:15"}},{"performer":"Dan Norvan","title":"Dont Forget Me (Nik Fenix Remix)","index":{"time":"23:30:00","frames":105750,"seconds":1410,"lenseconds":270,"lentime":"04:30"}},{"performer":"Mart K","title":"Beach (Original Mix)","index":{"time":"28:00:00","frames":126000,"seconds":1680,"lenseconds":405,"lentime":"06:45"}},{"performer":"Jesse Suun","title":"Velvety (Original Mix)","index":{"time":"34:45:00","frames":156375,"seconds":2085,"lenseconds":300,"lentime":"05:00"}},{"performer":"Reflekt feat. Delline Bass","title":"Need To Feel Loved (Adam K and Soha Vocal Mix)","index":{"time":"39:45:00","frames":178875,"seconds":2385,"lenseconds":360,"lentime":"06:00"}},{"performer":"Deadmau5 ft. Colleen DAgostino","title":"Drop The Poptart w Arcadia w Somewhere Up Here (Mashup)","index":{"time":"45:45:00","frames":205875,"seconds":2745,"lenseconds":855,"lentime":"14:15"}}]}