Carefully constructed music sets for your aural pleasure
Aerodynamix 018 @ Frisky Radio June 2014 mixed by JuanP
Progressive House
1:00:00
progressive house
SHOW TRACKLIST
SHOW CUESHEET
SHOW TXT PL

LOAD IN AUDIO PLAYER

1
Masahiro Nishibata
Tide On (Nemphirex Remix)
07:07
2
Myon & Shane 54, Natalie Peris, Nigel Good
Outshine (Nigel Good Remix)
04:17
3
Bring Bliss
Anastasija (Original Mix)
06:15
4
Evave
Falling In My Eyes (Original Mix)
04:28
5
Hoova
Bacalar (Andrei Niconoff Remix)
06:00
6
Dimay
Moon Night (Original Mix)
06:00
7
Maylo
Summer Sadness (Original Mix)
07:45
8
Gal Abutbul
White Sand (Original Mix)
06:15
9
Matt Rowan
Genteel (Original Mix)
06:00
10
Albea
From Norway to Iceland (Dobra Remix)
05:53
PERFORMER "VA [Mixed by JuanP]" TITLE "Aerodynamix 018 (June 2014) Frisky Radio" FILE "33-va-aerodynamix_018_mixed_by_juan_prada_friskyradio-jun2014.mp3" WAVE TRACK 01 AUDIO PERFORMER "Masahiro Nishibata" TITLE "Tide On (Nemphirex Remix)" INDEX 01 00:00:00 TRACK 02 AUDIO PERFORMER "Myon & Shane 54, Natalie Peris, Nigel Good" TITLE "Outshine (Nigel Good Remix)" INDEX 01 07:07:30 TRACK 03 AUDIO PERFORMER "Bring Bliss" TITLE "Anastasija (Original Mix)" INDEX 01 11:24:20 TRACK 04 AUDIO PERFORMER "Evave" TITLE "Falling In My Eyes (Original Mix)" INDEX 01 17:39:15 TRACK 05 AUDIO PERFORMER "Hoova" TITLE "Bacalar (Andrei Niconoff Remix)" INDEX 01 22:07:20 TRACK 06 AUDIO PERFORMER "Dimay" TITLE "Moon Night (Original Mix)" INDEX 01 28:07:20 TRACK 07 AUDIO PERFORMER "Maylo" TITLE "Summer Sadness (Original Mix)" INDEX 01 34:07:30 TRACK 08 AUDIO PERFORMER "Gal Abutbul" TITLE "White Sand (Original Mix)" INDEX 01 41:52:20 TRACK 09 AUDIO PERFORMER "Matt Rowan" TITLE "Genteel (Original Mix)" INDEX 01 48:07:20 TRACK 10 AUDIO PERFORMER "Albea" TITLE "From Norway to Iceland (Dobra Remix)" INDEX 01 54:07:20
01 Masahiro Nishibata - Tide On (Nemphirex Remix) 00:00 02 Myon & Shane 54, Natalie Peris, Nigel Good - Outshine (Nigel Good Remix) 07:07 03 Bring Bliss - Anastasija (Original Mix) 11:24 04 Evave - Falling In My Eyes (Original Mix) 17:39 05 Hoova - Bacalar (Andrei Niconoff Remix) 22:07 06 Dimay - Moon Night (Original Mix) 28:07 07 Maylo - Summer Sadness (Original Mix) 34:07 08 Gal Abutbul - White Sand (Original Mix) 41:52 09 Matt Rowan - Genteel (Original Mix) 48:07 10 Albea - From Norway to Iceland (Dobra Remix) 54:07
Aerodynamix 018 @ Frisky Radio June 2014 mixed by JuanPdata/33-va-aerodynamix_018_mixed_by_juan_prada_friskyradio-jun2014-500px.pngdata/33-va-aerodynamix_018_mixed_by_juan_prada_friskyradio-jun2014.mp3data/33-va-aerodynamix_018_mixed_by_juan_prada_friskyradio-jun2014.ogg
{"Cuesheet":{"performer":"VA [Mixed by JuanP]","title":"Aerodynamix 018 (June 2014) Frisky Radio","file":"33-va-aerodynamix_018_mixed_by_juan_prada_friskyradio-jun2014.mp3"},"Track":[{"performer":"Masahiro Nishibata","title":"Tide On (Nemphirex Remix)","index":{"time":"00:00:00","frames":0,"seconds":0,"lenseconds":427,"lentime":"07:07"}},{"performer":"Myon & Shane 54, Natalie Peris, Nigel Good","title":"Outshine (Nigel Good Remix)","index":{"time":"07:07:30","frames":32055,"seconds":427,"lenseconds":257,"lentime":"04:17"}},{"performer":"Bring Bliss","title":"Anastasija (Original Mix)","index":{"time":"11:24:20","frames":51320,"seconds":684,"lenseconds":375,"lentime":"06:15"}},{"performer":"Evave","title":"Falling In My Eyes (Original Mix)","index":{"time":"17:39:15","frames":79440,"seconds":1059,"lenseconds":268,"lentime":"04:28"}},{"performer":"Hoova","title":"Bacalar (Andrei Niconoff Remix)","index":{"time":"22:07:20","frames":99545,"seconds":1327,"lenseconds":360,"lentime":"06:00"}},{"performer":"Dimay","title":"Moon Night (Original Mix)","index":{"time":"28:07:20","frames":126545,"seconds":1687,"lenseconds":360,"lentime":"06:00"}},{"performer":"Maylo","title":"Summer Sadness (Original Mix)","index":{"time":"34:07:30","frames":153555,"seconds":2047,"lenseconds":465,"lentime":"07:45"}},{"performer":"Gal Abutbul","title":"White Sand (Original Mix)","index":{"time":"41:52:20","frames":188420,"seconds":2512,"lenseconds":375,"lentime":"06:15"}},{"performer":"Matt Rowan","title":"Genteel (Original Mix)","index":{"time":"48:07:20","frames":216545,"seconds":2887,"lenseconds":360,"lentime":"06:00"}},{"performer":"Albea","title":"From Norway to Iceland (Dobra Remix)","index":{"time":"54:07:20","frames":243545,"seconds":3247,"lenseconds":353,"lentime":"05:53"}}]}