Carefully constructed music sets for your aural pleasure
Aerodynamix 016 @ Frisky Radio April 2014 mixed by JuanP
Nu Disco, House, Funk
1:00:00
nu disco, house, funk
SHOW TRACKLIST
SHOW CUESHEET
SHOW TXT PL

LOAD IN AUDIO PLAYER

1
Andhim
Hausch (Duerstuben Remix Alenoise Feat. Annabelle)
04:54
2
Clarian
Destroy, She Says (Original Mix)
02:15
3
Marcello Giordani
Respect Yourself
03:58
4
Todd Terje
Delorean Dynamite
05:33
5
Tensnake feat. Fiora
No Relief
06:29
6
Lifelike
Night Patrol
06:36
7
Croatia Squad
Be Good to Me (Original Mix)
05:04
8
Audiojack, Nancy Whang
Like an Eagle (Extended Version)
05:49
9
Disco Dasco
Aint Gonna Stop Me Now
05:33
10
Elekfantz
Diggin On You (Original Mix)
04:45
11
Frankie Knuckles
Your love (feat. Lamie Principle) (Voice over Frankie Interview)
09:04
PERFORMER "VA [Mixed by JuanP]" TITLE "Aerodynamix 016 (April 2014)" FILE "31-va-aerodynamix_016_mixed_by_juan_prada_friskyradio-apr2014.mp3" WAVE TRACK 01 AUDIO PERFORMER "Andhim" TITLE "Hausch (Duerstuben Remix Alenoise Feat. Annabelle)" INDEX 01 00:00:00 TRACK 02 AUDIO PERFORMER "Clarian" TITLE "Destroy, She Says (Original Mix)" INDEX 01 04:54:40 TRACK 03 AUDIO PERFORMER "Marcello Giordani" TITLE "Respect Yourself" INDEX 01 07:09:10 TRACK 04 AUDIO PERFORMER "Todd Terje" TITLE "Delorean Dynamite" INDEX 01 11:07:05 TRACK 05 AUDIO PERFORMER "Tensnake feat. Fiora" TITLE "No Relief" INDEX 01 16:40:20 TRACK 06 AUDIO PERFORMER "Lifelike" TITLE "Night Patrol" INDEX 01 23:09:05 TRACK 07 AUDIO PERFORMER "Croatia Squad" TITLE "Be Good to Me (Original Mix)" INDEX 01 29:45:80 TRACK 08 AUDIO PERFORMER "Audiojack, Nancy Whang" TITLE "Like an Eagle (Extended Version)" INDEX 01 34:49:10 TRACK 09 AUDIO PERFORMER "Disco Dasco" TITLE "Aint Gonna Stop Me Now" INDEX 01 40:38:25 TRACK 10 AUDIO PERFORMER "Elekfantz" TITLE "Diggin On You (Original Mix)" INDEX 01 46:11:50 TRACK 11 AUDIO PERFORMER "Frankie Knuckles" TITLE "Your love (feat. Lamie Principle) (Voice over Frankie Interview)" INDEX 01 50:56:90
01 Andhim - Hausch (Duerstuben Remix Alenoise Feat. Annabelle) 00:00 02 Clarian - Destroy, She Says (Original Mix) 04:54 03 Marcello Giordani - Respect Yourself 07:09 04 Todd Terje - Delorean Dynamite 11:07 05 Tensnake feat. Fiora - No Relief 16:40 06 Lifelike - Night Patrol 23:09 07 Croatia Squad - Be Good to Me (Original Mix) 29:45 08 Audiojack, Nancy Whang - Like an Eagle (Extended Version) 34:49 09 Disco Dasco - Aint Gonna Stop Me Now 40:38 10 Elekfantz - Diggin On You (Original Mix) 46:11 11 Frankie Knuckles - Your love (feat. Lamie Principle) (Voice over Frankie Interview) 50:56
Aerodynamix 016 @ Frisky Radio April 2014 mixed by JuanPdata/31-va-aerodynamix_016_mixed_by_juan_prada_friskyradio-apr2014-500px.pngdata/31-va-aerodynamix_016_mixed_by_juan_prada_friskyradio-apr2014.mp3data/31-va-aerodynamix_016_mixed_by_juan_prada_friskyradio-apr2014.ogg
{"Cuesheet":{"performer":"VA [Mixed by JuanP]","title":"Aerodynamix 016 (April 2014)","file":"31-va-aerodynamix_016_mixed_by_juan_prada_friskyradio-apr2014.mp3"},"Track":[{"performer":"Andhim","title":"Hausch (Duerstuben Remix Alenoise Feat. Annabelle)","index":{"time":"00:00:00","frames":0,"seconds":0,"lenseconds":294,"lentime":"04:54"}},{"performer":"Clarian","title":"Destroy, She Says (Original Mix)","index":{"time":"04:54:40","frames":22090,"seconds":294,"lenseconds":135,"lentime":"02:15"}},{"performer":"Marcello Giordani","title":"Respect Yourself","index":{"time":"07:09:10","frames":32185,"seconds":429,"lenseconds":238,"lentime":"03:58"}},{"performer":"Todd Terje","title":"Delorean Dynamite","index":{"time":"11:07:05","frames":50030,"seconds":667,"lenseconds":333,"lentime":"05:33"}},{"performer":"Tensnake feat. Fiora","title":"No Relief","index":{"time":"16:40:20","frames":75020,"seconds":1000,"lenseconds":389,"lentime":"06:29"}},{"performer":"Lifelike","title":"Night Patrol","index":{"time":"23:09:05","frames":104180,"seconds":1389,"lenseconds":396,"lentime":"06:36"}},{"performer":"Croatia Squad","title":"Be Good to Me (Original Mix)","index":{"time":"29:45:80","frames":133955,"seconds":1785,"lenseconds":304,"lentime":"05:04"}},{"performer":"Audiojack, Nancy Whang","title":"Like an Eagle (Extended Version)","index":{"time":"34:49:10","frames":156685,"seconds":2089,"lenseconds":349,"lentime":"05:49"}},{"performer":"Disco Dasco","title":"Aint Gonna Stop Me Now","index":{"time":"40:38:25","frames":182875,"seconds":2438,"lenseconds":333,"lentime":"05:33"}},{"performer":"Elekfantz","title":"Diggin On You (Original Mix)","index":{"time":"46:11:50","frames":207875,"seconds":2771,"lenseconds":285,"lentime":"04:45"}},{"performer":"Frankie Knuckles","title":"Your love (feat. Lamie Principle) (Voice over Frankie Interview)","index":{"time":"50:56:90","frames":229290,"seconds":3056,"lenseconds":544,"lentime":"09:04"}}]}