Carefully constructed music sets for your aural pleasure
Aerodynamix 015 @ Frisky Radio March 2014 mixed by JuanP
Progressive House
1:00:00
progressive house
SHOW TRACKLIST
SHOW CUESHEET
SHOW TXT PL

LOAD IN AUDIO PLAYER

1
Tensnake
Last Song
04:07
2
Ruede Hagelstein
Detuned
04:08
3
Dr. Avalance
Cuatro contra tres (Danny Lloyd Remix)
07:14
4
Pig & Dan
The Sudden Rush (Original Mix)
05:56
5
Eugene Loner
Against the Wind
07:29
6
Mindgamers
Caprioska (Yuriy from Russia Remix)
05:40
7
Mikko Lahti
Tokyo Story (Original Mix) (JuanP Bootleg Rework)
06:12
8
Anton Make
Vera (Loco-volver Remix)
07:38
9
CLMD
Drifting (Original Mix)
06:07
10
Ambee Jolene & Nolan
Everyday & Everynight (Kant Remix)
05:29
PERFORMER "VA [Mixed by JuanP]" TITLE "Aerodynamix 015 (March 2014)" FILE "30-va-aerodynamix_015_mixed_by_juan_prada_friskyradio-mar2014.mp3" WAVE TRACK 01 AUDIO PERFORMER "Tensnake" TITLE "Last Song" INDEX 01 00:00:00 TRACK 02 AUDIO PERFORMER "Ruede Hagelstein" TITLE "Detuned" INDEX 01 04:07:50 TRACK 03 AUDIO PERFORMER "Dr. Avalance" TITLE "Cuatro contra tres (Danny Lloyd Remix)" INDEX 01 08:15:30 TRACK 04 AUDIO PERFORMER "Pig & Dan" TITLE "The Sudden Rush (Original Mix)" INDEX 01 15:29:15 TRACK 05 AUDIO PERFORMER "Eugene Loner" TITLE "Against the Wind" INDEX 01 21:25:00 TRACK 06 AUDIO PERFORMER "Mindgamers" TITLE "Caprioska (Yuriy from Russia Remix)" INDEX 01 28:54:00 TRACK 07 AUDIO PERFORMER "Mikko Lahti" TITLE "Tokyo Story (Original Mix) (JuanP Bootleg Rework)" INDEX 01 34:34:80 TRACK 08 AUDIO PERFORMER "Anton Make" TITLE "Vera (Loco-volver Remix)" INDEX 01 40:46:20 TRACK 09 AUDIO PERFORMER "CLMD" TITLE "Drifting (Original Mix)" INDEX 01 48:24:80 TRACK 10 AUDIO PERFORMER "Ambee Jolene & Nolan" TITLE "Everyday & Everynight (Kant Remix)" INDEX 01 54:31:00
01 Tensnake - Last Song 00:00 02 Ruede Hagelstein - Detuned 04:07 03 Dr. Avalance - Cuatro contra tres (Danny Lloyd Remix) 08:15 04 Pig & Dan - The Sudden Rush (Original Mix) 15:29 05 Eugene Loner - Against the Wind 21:25 06 Mindgamers - Caprioska (Yuriy from Russia Remix) 28:54 07 Mikko Lahti - Tokyo Story (Original Mix) (JuanP Bootleg Rework) 34:34 08 Anton Make - Vera (Loco-volver Remix) 40:46 09 CLMD - Drifting (Original Mix) 48:24 10 Ambee Jolene & Nolan - Everyday & Everynight (Kant Remix) 54:31
Aerodynamix 015 @ Frisky Radio March 2014 mixed by JuanPdata/30-va-aerodynamix_015_mixed_by_juan_prada_friskyradio-mar2014-500px.pngdata/30-va-aerodynamix_015_mixed_by_juan_prada_friskyradio-mar2014.mp3data/30-va-aerodynamix_015_mixed_by_juan_prada_friskyradio-mar2014.ogg
{"Cuesheet":{"performer":"VA [Mixed by JuanP]","title":"Aerodynamix 015 (March 2014)","file":"30-va-aerodynamix_015_mixed_by_juan_prada_friskyradio-mar2014.mp3"},"Track":[{"performer":"Tensnake","title":"Last Song","index":{"time":"00:00:00","frames":0,"seconds":0,"lenseconds":247,"lentime":"04:07"}},{"performer":"Ruede Hagelstein","title":"Detuned","index":{"time":"04:07:50","frames":18575,"seconds":247,"lenseconds":248,"lentime":"04:08"}},{"performer":"Dr. Avalance","title":"Cuatro contra tres (Danny Lloyd Remix)","index":{"time":"08:15:30","frames":37155,"seconds":495,"lenseconds":434,"lentime":"07:14"}},{"performer":"Pig & Dan","title":"The Sudden Rush (Original Mix)","index":{"time":"15:29:15","frames":69690,"seconds":929,"lenseconds":356,"lentime":"05:56"}},{"performer":"Eugene Loner","title":"Against the Wind","index":{"time":"21:25:00","frames":96375,"seconds":1285,"lenseconds":449,"lentime":"07:29"}},{"performer":"Mindgamers","title":"Caprioska (Yuriy from Russia Remix)","index":{"time":"28:54:00","frames":130050,"seconds":1734,"lenseconds":340,"lentime":"05:40"}},{"performer":"Mikko Lahti","title":"Tokyo Story (Original Mix) (JuanP Bootleg Rework)","index":{"time":"34:34:80","frames":155630,"seconds":2074,"lenseconds":372,"lentime":"06:12"}},{"performer":"Anton Make","title":"Vera (Loco-volver Remix)","index":{"time":"40:46:20","frames":183470,"seconds":2446,"lenseconds":458,"lentime":"07:38"}},{"performer":"CLMD","title":"Drifting (Original Mix)","index":{"time":"48:24:80","frames":217880,"seconds":2904,"lenseconds":367,"lentime":"06:07"}},{"performer":"Ambee Jolene & Nolan","title":"Everyday & Everynight (Kant Remix)","index":{"time":"54:31:00","frames":245325,"seconds":3271,"lenseconds":329,"lentime":"05:29"}}]}