Carefully constructed music sets for your aural pleasure
Aerodynamix 014 @ Frisky Radio February 2014 mixed by JuanP
Deep House, Progressive House
1:00:00
deep house, progressive house
SHOW TRACKLIST
SHOW CUESHEET
SHOW TXT PL

LOAD IN AUDIO PLAYER

1
Charlie May
Crossing_Point
08:00
2
A Balter
You're a Fish
05:48
3
Spitsyn
Horizons in (Dub Space Mix)
05:09
4
Pryda
Lycka (Original Mix)
05:33
5
EDX
Reckless Ardor (Original Mix)
04:23
6
LTN
In Between (Original Mix)
06:03
7
Nihilum
Illusion (Original Mix)
05:32
8
Nigel Good
Come Home (LTN Remix)
05:30
9
Anry
Serene Sky
05:49
10
Ad Brown
Pulse (Original Mix)
02:45
11
EDX
Blessed (Original Club Mix)
05:28
PERFORMER "Mixed by Juan Prada" TITLE "Aerodynamix 014 @ friskyRadio February 2014" FILE "29-va-aerodynamix_014_mixed_by_juan_prada_friskyradio-feb2014.mp3" WAVE TRACK 01 AUDIO PERFORMER "Charlie May" TITLE "Crossing_Point" INDEX 01 00:00:00 TRACK 02 AUDIO PERFORMER "A Balter" TITLE "You're a Fish" INDEX 01 08:00:00 TRACK 03 AUDIO PERFORMER "Spitsyn" TITLE "Horizons in (Dub Space Mix)" INDEX 01 13:48:00 TRACK 04 AUDIO PERFORMER "Pryda" TITLE "Lycka (Original Mix)" INDEX 01 18:57:60 TRACK 05 AUDIO PERFORMER "EDX" TITLE "Reckless Ardor (Original Mix)" INDEX 01 24:30:50 TRACK 06 AUDIO PERFORMER "LTN" TITLE "In Between (Original Mix)" INDEX 01 28:53:30 TRACK 07 AUDIO PERFORMER "Nihilum" TITLE "Illusion (Original Mix)" INDEX 01 34:56:30 TRACK 08 AUDIO PERFORMER "Nigel Good" TITLE "Come Home (LTN Remix)" INDEX 01 40:28:90 TRACK 09 AUDIO PERFORMER "Anry" TITLE "Serene Sky" INDEX 01 45:58:95 TRACK 10 AUDIO PERFORMER "Ad Brown" TITLE "Pulse (Original Mix)" INDEX 01 51:47:60 TRACK 11 AUDIO PERFORMER "EDX" TITLE "Blessed (Original Club Mix)" INDEX 01 54:32:70
01 Charlie May - Crossing_Point 00:00 02 A Balter - You're a Fish 08:00 03 Spitsyn - Horizons in (Dub Space Mix) 13:48 04 Pryda - Lycka (Original Mix) 18:57 05 EDX - Reckless Ardor (Original Mix) 24:30 06 LTN - In Between (Original Mix) 28:53 07 Nihilum - Illusion (Original Mix) 34:56 08 Nigel Good - Come Home (LTN Remix) 40:28 09 Anry - Serene Sky 45:58 10 Ad Brown - Pulse (Original Mix) 51:47 11 EDX - Blessed (Original Club Mix) 54:32
Aerodynamix 014 @ Frisky Radio February 2014 mixed by JuanPdata/29-va-aerodynamix_014_mixed_by_juan_prada_friskyradio-feb2014-500px.pngdata/29-va-aerodynamix_014_mixed_by_juan_prada_friskyradio-feb2014.mp3data/29-va-aerodynamix_014_mixed_by_juan_prada_friskyradio-feb2014.ogg
{"Cuesheet":{"performer":"Mixed by Juan Prada","title":"Aerodynamix 014 @ friskyRadio February 2014","file":"29-va-aerodynamix_014_mixed_by_juan_prada_friskyradio-feb2014.mp3"},"Track":[{"performer":"Charlie May","title":"Crossing_Point","index":{"time":"00:00:00","frames":0,"seconds":0,"lenseconds":480,"lentime":"08:00"}},{"performer":"A Balter","title":"You're a Fish","index":{"time":"08:00:00","frames":36000,"seconds":480,"lenseconds":348,"lentime":"05:48"}},{"performer":"Spitsyn","title":"Horizons in (Dub Space Mix)","index":{"time":"13:48:00","frames":62100,"seconds":828,"lenseconds":309,"lentime":"05:09"}},{"performer":"Pryda","title":"Lycka (Original Mix)","index":{"time":"18:57:60","frames":85335,"seconds":1137,"lenseconds":333,"lentime":"05:33"}},{"performer":"EDX","title":"Reckless Ardor (Original Mix)","index":{"time":"24:30:50","frames":110300,"seconds":1470,"lenseconds":263,"lentime":"04:23"}},{"performer":"LTN","title":"In Between (Original Mix)","index":{"time":"28:53:30","frames":130005,"seconds":1733,"lenseconds":363,"lentime":"06:03"}},{"performer":"Nihilum","title":"Illusion (Original Mix)","index":{"time":"34:56:30","frames":157230,"seconds":2096,"lenseconds":332,"lentime":"05:32"}},{"performer":"Nigel Good","title":"Come Home (LTN Remix)","index":{"time":"40:28:90","frames":182190,"seconds":2428,"lenseconds":330,"lentime":"05:30"}},{"performer":"Anry","title":"Serene Sky","index":{"time":"45:58:95","frames":206945,"seconds":2758,"lenseconds":349,"lentime":"05:49"}},{"performer":"Ad Brown","title":"Pulse (Original Mix)","index":{"time":"51:47:60","frames":233085,"seconds":3107,"lenseconds":165,"lentime":"02:45"}},{"performer":"EDX","title":"Blessed (Original Club Mix)","index":{"time":"54:32:70","frames":245470,"seconds":3272,"lenseconds":328,"lentime":"05:28"}}]}