Carefully constructed music sets for your aural pleasure
Aerodynamix 013 @ Frisky Radio January 2014 mixed by JuanP
Deep House, Progressive House, Tech House
1:00:00
deep house, progressive house, tech house
SHOW TRACKLIST
SHOW CUESHEET
SHOW TXT PL

LOAD IN AUDIO PLAYER

1
Joe Garston
Adventures In Suburbia (Original Mix)
04:05
2
Booka Shade
Love Inc (Hot Since 82 Remix)
05:23
3
Avatism
Mastodon (Mind Against Remix)
04:29
4
Cut Knob
Fiesta Privada (East Cafe Remix)
05:45
5
Avicii
Wake Me Up (Pang Remix)
03:58
6
Andrew Philippov
No Way to Escape (Jeremy Rowlett Remix)
06:04
7
Ruben De Ronde
They Are Not You (Gai Barone Remix)
07:04
8
Kerry Leva
Proud (Oliver Smith Remix)
05:16
9
Johan Vilborg
Mai Tai (Original Mix)
05:00
10
Yuri Kane ft. Sopheary
Obsession (Original Mix)
05:07
11
Dave Aude, Crazibiza, Vassy
Hustlin (Slideback Remix)
03:29
12
Jerome Robins, Dolly Rockers
What About My Love (Etienne Ozborne, Peter Brown Remix)
04:20
PERFORMER "VA [Mixed by JuanP]" TITLE "Aerodynamix 013 (January 2014)" FILE "28-va-aerodynamix_013_mixed_by_juan_prada-friskyradio-jan2014.mp3" WAVE TRACK 01 AUDIO PERFORMER "Joe Garston" TITLE "Adventures In Suburbia (Original Mix)" INDEX 01 00:00:00 TRACK 02 AUDIO PERFORMER "Booka Shade" TITLE "Love Inc (Hot Since 82 Remix)" INDEX 01 04:05:30 TRACK 03 AUDIO PERFORMER "Avatism" TITLE "Mastodon (Mind Against Remix)" INDEX 01 09:28:00 TRACK 04 AUDIO PERFORMER "Cut Knob" TITLE "Fiesta Privada (East Cafe Remix)" INDEX 01 13:57:00 TRACK 05 AUDIO PERFORMER "Avicii" TITLE "Wake Me Up (Pang Remix)" INDEX 01 19:42:30 TRACK 06 AUDIO PERFORMER "Andrew Philippov" TITLE "No Way to Escape (Jeremy Rowlett Remix)" INDEX 01 23:40:30 TRACK 07 AUDIO PERFORMER "Ruben De Ronde" TITLE "They Are Not You (Gai Barone Remix)" INDEX 01 29:44:30 TRACK 08 AUDIO PERFORMER "Kerry Leva" TITLE "Proud (Oliver Smith Remix)" INDEX 01 36:48:40 TRACK 09 AUDIO PERFORMER "Johan Vilborg" TITLE "Mai Tai (Original Mix)" INDEX 01 42:04:10 TRACK 10 AUDIO PERFORMER "Yuri Kane ft. Sopheary" TITLE "Obsession (Original Mix)" INDEX 01 47:04:20 TRACK 11 AUDIO PERFORMER "Dave Aude, Crazibiza, Vassy" TITLE "Hustlin (Slideback Remix)" INDEX 01 52:11:10 TRACK 12 AUDIO PERFORMER "Jerome Robins, Dolly Rockers" TITLE "What About My Love (Etienne Ozborne, Peter Brown Remix)" INDEX 01 55:40:70
01 Joe Garston - Adventures In Suburbia (Original Mix) 00:00 02 Booka Shade - Love Inc (Hot Since 82 Remix) 04:05 03 Avatism - Mastodon (Mind Against Remix) 09:28 04 Cut Knob - Fiesta Privada (East Cafe Remix) 13:57 05 Avicii - Wake Me Up (Pang Remix) 19:42 06 Andrew Philippov - No Way to Escape (Jeremy Rowlett Remix) 23:40 07 Ruben De Ronde - They Are Not You (Gai Barone Remix) 29:44 08 Kerry Leva - Proud (Oliver Smith Remix) 36:48 09 Johan Vilborg - Mai Tai (Original Mix) 42:04 10 Yuri Kane ft. Sopheary - Obsession (Original Mix) 47:04 11 Dave Aude, Crazibiza, Vassy - Hustlin (Slideback Remix) 52:11 12 Jerome Robins, Dolly Rockers - What About My Love (Etienne Ozborne, Peter Brown Remix) 55:40
Aerodynamix 013 @ Frisky Radio January 2014 mixed by JuanPdata/28-va-aerodynamix_013_mixed_by_juan_prada_friskyradio-jan2014-500px.pngdata/28-va-aerodynamix_013_mixed_by_juan_prada_friskyradio-jan2014.mp3data/28-va-aerodynamix_013_mixed_by_juan_prada_friskyradio-jan2014.ogg
{"Cuesheet":{"performer":"VA [Mixed by JuanP]","title":"Aerodynamix 013 (January 2014)","file":"28-va-aerodynamix_013_mixed_by_juan_prada-friskyradio-jan2014.mp3"},"Track":[{"performer":"Joe Garston","title":"Adventures In Suburbia (Original Mix)","index":{"time":"00:00:00","frames":0,"seconds":0,"lenseconds":245,"lentime":"04:05"}},{"performer":"Booka Shade","title":"Love Inc (Hot Since 82 Remix)","index":{"time":"04:05:30","frames":18405,"seconds":245,"lenseconds":323,"lentime":"05:23"}},{"performer":"Avatism","title":"Mastodon (Mind Against Remix)","index":{"time":"09:28:00","frames":42600,"seconds":568,"lenseconds":269,"lentime":"04:29"}},{"performer":"Cut Knob","title":"Fiesta Privada (East Cafe Remix)","index":{"time":"13:57:00","frames":62775,"seconds":837,"lenseconds":345,"lentime":"05:45"}},{"performer":"Avicii","title":"Wake Me Up (Pang Remix)","index":{"time":"19:42:30","frames":88680,"seconds":1182,"lenseconds":238,"lentime":"03:58"}},{"performer":"Andrew Philippov","title":"No Way to Escape (Jeremy Rowlett Remix)","index":{"time":"23:40:30","frames":106530,"seconds":1420,"lenseconds":364,"lentime":"06:04"}},{"performer":"Ruben De Ronde","title":"They Are Not You (Gai Barone Remix)","index":{"time":"29:44:30","frames":133830,"seconds":1784,"lenseconds":424,"lentime":"07:04"}},{"performer":"Kerry Leva","title":"Proud (Oliver Smith Remix)","index":{"time":"36:48:40","frames":165640,"seconds":2208,"lenseconds":316,"lentime":"05:16"}},{"performer":"Johan Vilborg","title":"Mai Tai (Original Mix)","index":{"time":"42:04:10","frames":189310,"seconds":2524,"lenseconds":300,"lentime":"05:00"}},{"performer":"Yuri Kane ft. Sopheary","title":"Obsession (Original Mix)","index":{"time":"47:04:20","frames":211820,"seconds":2824,"lenseconds":307,"lentime":"05:07"}},{"performer":"Dave Aude, Crazibiza, Vassy","title":"Hustlin (Slideback Remix)","index":{"time":"52:11:10","frames":234835,"seconds":3131,"lenseconds":209,"lentime":"03:29"}},{"performer":"Jerome Robins, Dolly Rockers","title":"What About My Love (Etienne Ozborne, Peter Brown Remix)","index":{"time":"55:40:70","frames":250570,"seconds":3340,"lenseconds":260,"lentime":"04:20"}}]}