Carefully constructed music sets for your aural pleasure
Aerodynamix 011 @ Frisky Radio November 2013 mixed by JuanP
Progressive House, Dance, Trance, Vocal trance
1:00:00
progressive house, dance, trance, vocal trance
SHOW TRACKLIST
SHOW CUESHEET
SHOW TXT PL

LOAD IN AUDIO PLAYER

1
Signalrunners
Electric Sheep (Original Mix)
08:03
2
K-Narf
Melancolia (LTN Remix)
05:15
3
Solid Stone
Supernatural (Original Mix)
05:30
4
Headstrong
Satellite Ft. Stine Grove (Aurosonic Progressive Mix)
05:45
5
Tygris
Scarlett Silva (Original Mix)
06:45
6
EDU ft. Natalie Gioia
You & Me (LTN Remix)
06:15
7
Jan Martin ft. Hysteria
There's You (LTN Remix)
05:43
8
Protoculture
Talisman (Original Mix)
05:13
9
Solarstone
Seven Cities (Antillas & Dankann Remix)
05:28
10
Jam & Spoon ft. Plavka Vs. David May & Amfree
Right in the Night 2013 (Rico Bernasconi Remix)
02:28
11
Sagi Rei
Right in the Night (Juan Prada Barely Remix)
03:35
PERFORMER "VA [Mixed by JuanP]" TITLE "Aerodynamix 011 @ FriskyRadio (November 2013)" FILE "26-va-aerodynamix_011_mixed_by_juan_prada_friskyradio-nov2013.mp3" WAVE TRACK 01 AUDIO PERFORMER "Signalrunners" TITLE "Electric Sheep (Original Mix)" INDEX 01 00:00:00 TRACK 02 AUDIO PERFORMER "K-Narf" TITLE "Melancolia (LTN Remix)" INDEX 01 08:03:60 TRACK 03 AUDIO PERFORMER "Solid Stone" TITLE "Supernatural (Original Mix)" INDEX 01 13:18:55 TRACK 04 AUDIO PERFORMER "Headstrong" TITLE "Satellite Ft. Stine Grove (Aurosonic Progressive Mix)" INDEX 01 18:48:50 TRACK 05 AUDIO PERFORMER "Tygris" TITLE "Scarlett Silva (Original Mix)" INDEX 01 24:33:50 TRACK 06 AUDIO PERFORMER "EDU ft. Natalie Gioia" TITLE "You & Me (LTN Remix)" INDEX 01 31:18:50 TRACK 07 AUDIO PERFORMER "Jan Martin ft. Hysteria" TITLE "There's You (LTN Remix)" INDEX 01 37:33:50 TRACK 08 AUDIO PERFORMER "Protoculture" TITLE "Talisman (Original Mix)" INDEX 01 43:16:40 TRACK 09 AUDIO PERFORMER "Solarstone" TITLE "Seven Cities (Antillas & Dankann Remix)" INDEX 01 48:29:50 TRACK 10 AUDIO PERFORMER "Jam & Spoon ft. Plavka Vs. David May & Amfree" TITLE "Right in the Night 2013 (Rico Bernasconi Remix)" INDEX 01 53:57:30 TRACK 11 AUDIO PERFORMER "Sagi Rei" TITLE "Right in the Night (Juan Prada Barely Remix)" INDEX 01 56:25:00
01 Signalrunners - Electric Sheep (Original Mix) 00:00 02 K-Narf - Melancolia (LTN Remix) 08:03 03 Solid Stone - Supernatural (Original Mix) 13:18 04 Headstrong - Satellite Ft. Stine Grove (Aurosonic Progressive Mix) 18:48 05 Tygris - Scarlett Silva (Original Mix) 24:33 06 EDU ft. Natalie Gioia - You & Me (LTN Remix) 31:18 07 Jan Martin ft. Hysteria - There's You (LTN Remix) 37:33 08 Protoculture - Talisman (Original Mix) 43:16 09 Solarstone - Seven Cities (Antillas & Dankann Remix) 48:29 10 Jam & Spoon ft. Plavka Vs. David May & Amfree - Right in the Night 2013 (Rico Bernasconi Remix) 53:57 11 Sagi Rei - Right in the Night (Juan Prada Barely Remix) 56:25
Aerodynamix 011 @ Frisky Radio November 2013 mixed by JuanPdata/26-va-aerodynamix_011_mixed_by_juan_prada_friskyradio-nov2013-500px.pngdata/26-va-aerodynamix_011_mixed_by_juan_prada_friskyradio-nov2013.mp3data/26-va-aerodynamix_011_mixed_by_juan_prada_friskyradio-nov2013.ogg
{"Cuesheet":{"performer":"VA [Mixed by JuanP]","title":"Aerodynamix 011 @ FriskyRadio (November 2013)","file":"26-va-aerodynamix_011_mixed_by_juan_prada_friskyradio-nov2013.mp3"},"Track":[{"performer":"Signalrunners","title":"Electric Sheep (Original Mix)","index":{"time":"00:00:00","frames":0,"seconds":0,"lenseconds":483,"lentime":"08:03"}},{"performer":"K-Narf","title":"Melancolia (LTN Remix)","index":{"time":"08:03:60","frames":36285,"seconds":483,"lenseconds":315,"lentime":"05:15"}},{"performer":"Solid Stone","title":"Supernatural (Original Mix)","index":{"time":"13:18:55","frames":59905,"seconds":798,"lenseconds":330,"lentime":"05:30"}},{"performer":"Headstrong","title":"Satellite Ft. Stine Grove (Aurosonic Progressive Mix)","index":{"time":"18:48:50","frames":84650,"seconds":1128,"lenseconds":345,"lentime":"05:45"}},{"performer":"Tygris","title":"Scarlett Silva (Original Mix)","index":{"time":"24:33:50","frames":110525,"seconds":1473,"lenseconds":405,"lentime":"06:45"}},{"performer":"EDU ft. Natalie Gioia","title":"You & Me (LTN Remix)","index":{"time":"31:18:50","frames":140900,"seconds":1878,"lenseconds":375,"lentime":"06:15"}},{"performer":"Jan Martin ft. Hysteria","title":"There's You (LTN Remix)","index":{"time":"37:33:50","frames":169025,"seconds":2253,"lenseconds":343,"lentime":"05:43"}},{"performer":"Protoculture","title":"Talisman (Original Mix)","index":{"time":"43:16:40","frames":194740,"seconds":2596,"lenseconds":313,"lentime":"05:13"}},{"performer":"Solarstone","title":"Seven Cities (Antillas & Dankann Remix)","index":{"time":"48:29:50","frames":218225,"seconds":2909,"lenseconds":328,"lentime":"05:28"}},{"performer":"Jam & Spoon ft. Plavka Vs. David May & Amfree","title":"Right in the Night 2013 (Rico Bernasconi Remix)","index":{"time":"53:57:30","frames":242805,"seconds":3237,"lenseconds":148,"lentime":"02:28"}},{"performer":"Sagi Rei","title":"Right in the Night (Juan Prada Barely Remix)","index":{"time":"56:25:00","frames":253875,"seconds":3385,"lenseconds":215,"lentime":"03:35"}}]}