Carefully constructed music sets for your aural pleasure
Aerodynamix 009 @ Frisky Radio September 2013 mixed by JuanP
Deep House, Nu Disco, House, Tech House, Progressive House
1:00:00
deep house, nu disco, house, tech house, progressive house
SHOW TRACKLIST
SHOW CUESHEET
SHOW TXT PL

LOAD IN AUDIO PLAYER

1
Joris Voorn
Ringo (Original Mix)
05:44
2
Bellanova
Stairway To_Heaven (Daniele Petronelli Vocal Mix)
04:28
3
Quivver feat. Angel Hart
I Dont Wanna Wait (Ben Delay Remix)
04:41
4
Torha, Earstrip
You Gotta Funk (Original Mix)
04:23
5
Lindstrom
Faar I Kaal
06:30
6
Umami
Sunny (Original Mix)
04:41
7
Andre Sobota
Pulsatilla (Henry Saiz Remix)
07:33
8
Home Video
Every Love That Ever Was (Bachelors Of Science Remix)
04:06
9
fuckmylife AKA Joel Zimmerman
All I Have (Juan Prada Remix)
07:05
10
Serge Devant feat. Taleen
3AM Eternal (Serge's KLF Remix)
06:33
11
Juan Prada
Just Music (Ending Set Remix)
04:16
PERFORMER "VA [Mixed by JuanP]" TITLE "Aerodynamix 009 @ FriskyRadio (September 2013)" FILE "24-va-aerodynamix_009_mixed_by_juan_prada_friskyradio-sep2013.mp3" WAVE TRACK 01 AUDIO PERFORMER "Joris Voorn" TITLE "Ringo (Original Mix)" INDEX 01 00:00:00 TRACK 02 AUDIO PERFORMER "Bellanova" TITLE "Stairway To_Heaven (Daniele Petronelli Vocal Mix)" INDEX 01 05:44:00 TRACK 03 AUDIO PERFORMER "Quivver feat. Angel Hart" TITLE "I Dont Wanna Wait (Ben Delay Remix)" INDEX 01 10:12:00 TRACK 04 AUDIO PERFORMER "Torha, Earstrip" TITLE "You Gotta Funk (Original Mix)" INDEX 01 14:53:00 TRACK 05 AUDIO PERFORMER "Lindstrom" TITLE "Faar I Kaal" INDEX 01 19:16:00 TRACK 06 AUDIO PERFORMER "Umami" TITLE "Sunny (Original Mix)" INDEX 01 25:46:50 TRACK 07 AUDIO PERFORMER "Andre Sobota" TITLE "Pulsatilla (Henry Saiz Remix)" INDEX 01 30:27:50 TRACK 08 AUDIO PERFORMER "Home Video" TITLE "Every Love That Ever Was (Bachelors Of Science Remix)" INDEX 01 38:00:00 TRACK 09 AUDIO PERFORMER "fuckmylife AKA Joel Zimmerman" TITLE "All I Have (Juan Prada Remix)" INDEX 01 42:06:00 TRACK 10 AUDIO PERFORMER "Serge Devant feat. Taleen" TITLE "3AM Eternal (Serge's KLF Remix)" INDEX 01 49:11:00 TRACK 11 AUDIO PERFORMER "Juan Prada" TITLE "Just Music (Ending Set Remix)" INDEX 01 55:44:00
01 Joris Voorn - Ringo (Original Mix) 00:00 02 Bellanova - Stairway To_Heaven (Daniele Petronelli Vocal Mix) 05:44 03 Quivver feat. Angel Hart - I Dont Wanna Wait (Ben Delay Remix) 10:12 04 Torha, Earstrip - You Gotta Funk (Original Mix) 14:53 05 Lindstrom - Faar I Kaal 19:16 06 Umami - Sunny (Original Mix) 25:46 07 Andre Sobota - Pulsatilla (Henry Saiz Remix) 30:27 08 Home Video - Every Love That Ever Was (Bachelors Of Science Remix) 38:00 09 fuckmylife AKA Joel Zimmerman - All I Have (Juan Prada Remix) 42:06 10 Serge Devant feat. Taleen - 3AM Eternal (Serge's KLF Remix) 49:11 11 Juan Prada - Just Music (Ending Set Remix) 55:44
Aerodynamix 009 @ Frisky Radio September 2013 mixed by JuanPdata/24-va-aerodynamix_009_mixed_by_juan_prada_friskyradio-sep2013-500px.pngdata/24-va-aerodynamix_009_mixed_by_juan_prada_friskyradio-sep2013.mp3data/24-va-aerodynamix_009_mixed_by_juan_prada_friskyradio-sep2013.ogg
{"Cuesheet":{"performer":"VA [Mixed by JuanP]","title":"Aerodynamix 009 @ FriskyRadio (September 2013)","file":"24-va-aerodynamix_009_mixed_by_juan_prada_friskyradio-sep2013.mp3"},"Track":[{"performer":"Joris Voorn","title":"Ringo (Original Mix)","index":{"time":"00:00:00","frames":0,"seconds":0,"lenseconds":344,"lentime":"05:44"}},{"performer":"Bellanova","title":"Stairway To_Heaven (Daniele Petronelli Vocal Mix)","index":{"time":"05:44:00","frames":25800,"seconds":344,"lenseconds":268,"lentime":"04:28"}},{"performer":"Quivver feat. Angel Hart","title":"I Dont Wanna Wait (Ben Delay Remix)","index":{"time":"10:12:00","frames":45900,"seconds":612,"lenseconds":281,"lentime":"04:41"}},{"performer":"Torha, Earstrip","title":"You Gotta Funk (Original Mix)","index":{"time":"14:53:00","frames":66975,"seconds":893,"lenseconds":263,"lentime":"04:23"}},{"performer":"Lindstrom","title":"Faar I Kaal","index":{"time":"19:16:00","frames":86700,"seconds":1156,"lenseconds":390,"lentime":"06:30"}},{"performer":"Umami","title":"Sunny (Original Mix)","index":{"time":"25:46:50","frames":116000,"seconds":1546,"lenseconds":281,"lentime":"04:41"}},{"performer":"Andre Sobota","title":"Pulsatilla (Henry Saiz Remix)","index":{"time":"30:27:50","frames":137075,"seconds":1827,"lenseconds":453,"lentime":"07:33"}},{"performer":"Home Video","title":"Every Love That Ever Was (Bachelors Of Science Remix)","index":{"time":"38:00:00","frames":171000,"seconds":2280,"lenseconds":246,"lentime":"04:06"}},{"performer":"fuckmylife AKA Joel Zimmerman","title":"All I Have (Juan Prada Remix)","index":{"time":"42:06:00","frames":189450,"seconds":2526,"lenseconds":425,"lentime":"07:05"}},{"performer":"Serge Devant feat. Taleen","title":"3AM Eternal (Serge's KLF Remix)","index":{"time":"49:11:00","frames":221325,"seconds":2951,"lenseconds":393,"lentime":"06:33"}},{"performer":"Juan Prada","title":"Just Music (Ending Set Remix)","index":{"time":"55:44:00","frames":250800,"seconds":3344,"lenseconds":256,"lentime":"04:16"}}]}