Carefully constructed music sets for your aural pleasure
Aerodynamix 008 @ Frisky Radio August 2013 mixed by JuanP
Deep House, Nu Disco, House
1:00:00
deep house, nu disco, house
SHOW TRACKLIST
SHOW CUESHEET
SHOW TXT PL

LOAD IN AUDIO PLAYER

1
Lane 8
Be Mine
05:06
2
Wamdue Project
King Of My Castle (Crazibiza Remix)
03:09
3
Monkey Safari
Jorg (Orginal Mix)
05:15
4
Lindstrom
Ra Akx St
05:42
5
Pet Shop Boys
Vocal (Flashmob Remix)
05:47
6
Kaiserdisco
Night & Day (Extended Beatport Only Version)
06:17
7
Claude VonStroke
Can't Wait (Original Mix)
06:15
8
Worakis
Bleu (Original MIx)
06:42
9
James Yuill
This Sweet Love (Tapesh & Day S Edit)
05:18
10
Fragma
Do You Really Want To Feel It
04:07
11
Kristine W
Save My Soul (Gabriel & Dresden Vocal Mix)
06:22
PERFORMER "VA [Mixed by JuanP]" TITLE "Aerodynamix 008 @ FriskyRadio (August 2013)" FILE "23-va-aerodynamix_008_mixed_by_juan_prada-friskyradio-aug2013.mp3" WAVE TRACK 01 AUDIO PERFORMER "Lane 8" TITLE "Be Mine" INDEX 01 00:00:00 TRACK 02 AUDIO PERFORMER "Wamdue Project" TITLE "King Of My Castle (Crazibiza Remix)" INDEX 01 05:06:80 TRACK 03 AUDIO PERFORMER "Monkey Safari" TITLE "Jorg (Orginal Mix)" INDEX 01 08:15:50 TRACK 04 AUDIO PERFORMER "Lindstrom" TITLE "Ra Akx St" INDEX 01 13:30:20 TRACK 05 AUDIO PERFORMER "Pet Shop Boys" TITLE "Vocal (Flashmob Remix)" INDEX 01 19:12:50 TRACK 06 AUDIO PERFORMER "Kaiserdisco" TITLE "Night & Day (Extended Beatport Only Version)" INDEX 01 24:59:00 TRACK 07 AUDIO PERFORMER "Claude VonStroke" TITLE "Can't Wait (Original Mix)" INDEX 01 31:16:20 TRACK 08 AUDIO PERFORMER "Worakis" TITLE "Bleu (Original MIx)" INDEX 01 37:31:00 TRACK 09 AUDIO PERFORMER "James Yuill" TITLE "This Sweet Love (Tapesh & Day S Edit)" INDEX 01 44:13:80 TRACK 10 AUDIO PERFORMER "Fragma" TITLE "Do You Really Want To Feel It" INDEX 01 49:31:00 TRACK 11 AUDIO PERFORMER "Kristine W" TITLE "Save My Soul (Gabriel & Dresden Vocal Mix)" INDEX 01 53:38:50
01 Lane 8 - Be Mine 00:00 02 Wamdue Project - King Of My Castle (Crazibiza Remix) 05:06 03 Monkey Safari - Jorg (Orginal Mix) 08:15 04 Lindstrom - Ra Akx St 13:30 05 Pet Shop Boys - Vocal (Flashmob Remix) 19:12 06 Kaiserdisco - Night & Day (Extended Beatport Only Version) 24:59 07 Claude VonStroke - Can't Wait (Original Mix) 31:16 08 Worakis - Bleu (Original MIx) 37:31 09 James Yuill - This Sweet Love (Tapesh & Day S Edit) 44:13 10 Fragma - Do You Really Want To Feel It 49:31 11 Kristine W - Save My Soul (Gabriel & Dresden Vocal Mix) 53:38
Aerodynamix 008 @ Frisky Radio August 2013 mixed by JuanPdata/23-va-aerodynamix_008_mixed_by_juan_prada_friskyradio-aug2013-500px.pngdata/23-va-aerodynamix_008_mixed_by_juan_prada_friskyradio-aug2013.mp3data/23-va-aerodynamix_008_mixed_by_juan_prada_friskyradio-aug2013.ogg
{"Cuesheet":{"performer":"VA [Mixed by JuanP]","title":"Aerodynamix 008 @ FriskyRadio (August 2013)","file":"23-va-aerodynamix_008_mixed_by_juan_prada-friskyradio-aug2013.mp3"},"Track":[{"performer":"Lane 8","title":"Be Mine","index":{"time":"00:00:00","frames":0,"seconds":0,"lenseconds":306,"lentime":"05:06"}},{"performer":"Wamdue Project","title":"King Of My Castle (Crazibiza Remix)","index":{"time":"05:06:80","frames":23030,"seconds":306,"lenseconds":189,"lentime":"03:09"}},{"performer":"Monkey Safari","title":"Jorg (Orginal Mix)","index":{"time":"08:15:50","frames":37175,"seconds":495,"lenseconds":315,"lentime":"05:15"}},{"performer":"Lindstrom","title":"Ra Akx St","index":{"time":"13:30:20","frames":60770,"seconds":810,"lenseconds":342,"lentime":"05:42"}},{"performer":"Pet Shop Boys","title":"Vocal (Flashmob Remix)","index":{"time":"19:12:50","frames":86450,"seconds":1152,"lenseconds":347,"lentime":"05:47"}},{"performer":"Kaiserdisco","title":"Night & Day (Extended Beatport Only Version)","index":{"time":"24:59:00","frames":112425,"seconds":1499,"lenseconds":377,"lentime":"06:17"}},{"performer":"Claude VonStroke","title":"Can't Wait (Original Mix)","index":{"time":"31:16:20","frames":140720,"seconds":1876,"lenseconds":375,"lentime":"06:15"}},{"performer":"Worakis","title":"Bleu (Original MIx)","index":{"time":"37:31:00","frames":168825,"seconds":2251,"lenseconds":402,"lentime":"06:42"}},{"performer":"James Yuill","title":"This Sweet Love (Tapesh & Day S Edit)","index":{"time":"44:13:80","frames":199055,"seconds":2653,"lenseconds":318,"lentime":"05:18"}},{"performer":"Fragma","title":"Do You Really Want To Feel It","index":{"time":"49:31:00","frames":222825,"seconds":2971,"lenseconds":247,"lentime":"04:07"}},{"performer":"Kristine W","title":"Save My Soul (Gabriel & Dresden Vocal Mix)","index":{"time":"53:38:50","frames":241400,"seconds":3218,"lenseconds":382,"lentime":"06:22"}}]}