Carefully constructed music sets for your aural pleasure
Dec 2010: Ambient & Lounge by JuanP
Ambient & Lounge set. Download cuesheet here: http://goo.gl/MHL1T
1:12:50
lounge, chillout, ambient, progressive house, trance, house, vocal, electronic, session, set
SHOW TRACKLIST
SHOW CUESHEET
SHOW TXT PL

LOAD IN AUDIO PLAYER

1
Super8 & Tab
Perfect Day (Feat. Alyna)
04:47
2
Lily Allen
Who'd Have Known
03:48
3
Solarstone
Intravenous (Original Mix)
04:09
4
Anoraak
Above Your Head
03:33
5
Kayne West
Welcome To Heartbreak (Ft. Kid)
03:50
6
Pet Shop Boys
The Night I Fell In Love
04:25
7
OMD
RFWK
03:19
8
Daft Punk
Something About Us
03:18
9
Michael Jackson
Money
03:58
10
Sally Shapiro
Moonlight Dance
03:17
11
Groove Armada
History
03:56
12
Jody Wisternoff
Starstrings
04:04
13
Sally Shapiro
Miracle (Bodgan Irkuk Remix)
06:54
14
Anoraak
Don't Be Afraid (Feat. Sally Shapiro)
03:16
15
Little Boots
Hearts Collide
03:39
16
Blank & Jones
Freelove (Sunset Session Mix) (with Bobo)
05:20
17
Blank & Jones
Miracle Man (with Cathy Battistessa)
04:24
18
Nouvelle Vague
Just Can't Get Enough
02:53
PERFORMER "VA [Mixed by Juan Prada]" TITLE "November 2010: Ambient & Lounge Mixed By JP" FILE "02-va-nov2010-ambient_and_lounge_mixed_by_juan_prada-2010-jpb.mp3" WAVE TRACK 01 AUDIO TITLE "Perfect Day (Feat. Alyna)" PERFORMER "Super8 & Tab" INDEX 01 00:00:00 TRACK 02 AUDIO TITLE "Who'd Have Known" PERFORMER "Lily Allen" INDEX 01 04:47:50 TRACK 03 AUDIO TITLE "Intravenous (Original Mix)" PERFORMER "Solarstone" INDEX 01 08:35:00 TRACK 04 AUDIO TITLE "Above Your Head" PERFORMER "Anoraak" INDEX 01 12:44:00 TRACK 05 AUDIO TITLE "Welcome To Heartbreak (Ft. Kid)" PERFORMER "Kayne West" INDEX 01 16:17:00 TRACK 06 AUDIO TITLE "The Night I Fell In Love" PERFORMER "Pet Shop Boys" INDEX 01 20:07:00 TRACK 07 AUDIO TITLE "RFWK" PERFORMER "OMD" INDEX 01 24:32:00 TRACK 08 AUDIO TITLE "Something About Us" PERFORMER "Daft Punk" INDEX 01 27:51:60 TRACK 09 AUDIO TITLE "Money" PERFORMER "Michael Jackson" INDEX 01 31:09:00 TRACK 10 AUDIO TITLE "Moonlight Dance" PERFORMER "Sally Shapiro" INDEX 01 35:07:00 TRACK 11 AUDIO TITLE "History" PERFORMER "Groove Armada" INDEX 01 38:24:00 TRACK 12 AUDIO TITLE "Starstrings" PERFORMER "Jody Wisternoff" INDEX 01 42:20:00 TRACK 13 AUDIO TITLE "Miracle (Bodgan Irkuk Remix)" PERFORMER "Sally Shapiro" INDEX 01 46:24:00 TRACK 14 AUDIO TITLE "Don't Be Afraid (Feat. Sally Shapiro)" PERFORMER "Anoraak" INDEX 01 53:18:00 TRACK 15 AUDIO TITLE "Hearts Collide" PERFORMER "Little Boots" INDEX 01 56:34:60 TRACK 16 AUDIO TITLE "Freelove (Sunset Session Mix) (with Bobo)" PERFORMER "Blank & Jones" INDEX 01 60:13:00 TRACK 17 AUDIO TITLE "Miracle Man (with Cathy Battistessa)" PERFORMER "Blank & Jones" INDEX 01 65:33:00 TRACK 18 AUDIO TITLE "Just Can't Get Enough" PERFORMER "Nouvelle Vague" INDEX 01 69:57:00
01 Super8 & Tab - Perfect Day (Feat. Alyna) 00:00 02 Lily Allen - Who'd Have Known 04:47 03 Solarstone - Intravenous (Original Mix) 08:35 04 Anoraak - Above Your Head 12:44 05 Kayne West - Welcome To Heartbreak (Ft. Kid) 16:17 06 Pet Shop Boys - The Night I Fell In Love 20:07 07 OMD - RFWK 24:32 08 Daft Punk - Something About Us 27:51 09 Michael Jackson - Money 31:09 10 Sally Shapiro - Moonlight Dance 35:07 11 Groove Armada - History 38:24 12 Jody Wisternoff - Starstrings 42:20 13 Sally Shapiro - Miracle (Bodgan Irkuk Remix) 46:24 14 Anoraak - Don't Be Afraid (Feat. Sally Shapiro) 53:18 15 Little Boots - Hearts Collide 56:34 16 Blank & Jones - Freelove (Sunset Session Mix) (with Bobo) 60:13 17 Blank & Jones - Miracle Man (with Cathy Battistessa) 65:33 18 Nouvelle Vague - Just Can't Get Enough 69:57
Dec 2010: Ambient & Lounge by JuanPdata/02-va-nov2010-ambient_and_lounge_mixed_by_juan_prada-2010-jpb.jpgdata/02-va-nov2010-ambient_and_lounge_mixed_by_juan_prada-2010-jpb.mp3data/02-va-nov2010-ambient_and_lounge_mixed_by_juan_prada-2010-jpb.ogg
{"Cuesheet":{"performer":"VA [Mixed by Juan Prada]","title":"November 2010: Ambient & Lounge Mixed By JP","file":"02-va-nov2010-ambient_and_lounge_mixed_by_juan_prada-2010-jpb.mp3"},"Track":[{"title":"Perfect Day (Feat. Alyna)","performer":"Super8 & Tab","index":{"time":"00:00:00","frames":0,"seconds":0,"lenseconds":287,"lentime":"04:47"}},{"title":"Who'd Have Known","performer":"Lily Allen","index":{"time":"04:47:50","frames":21575,"seconds":287,"lenseconds":228,"lentime":"03:48"}},{"title":"Intravenous (Original Mix)","performer":"Solarstone","index":{"time":"08:35:00","frames":38625,"seconds":515,"lenseconds":249,"lentime":"04:09"}},{"title":"Above Your Head","performer":"Anoraak","index":{"time":"12:44:00","frames":57300,"seconds":764,"lenseconds":213,"lentime":"03:33"}},{"title":"Welcome To Heartbreak (Ft. Kid)","performer":"Kayne West","index":{"time":"16:17:00","frames":73275,"seconds":977,"lenseconds":230,"lentime":"03:50"}},{"title":"The Night I Fell In Love","performer":"Pet Shop Boys","index":{"time":"20:07:00","frames":90525,"seconds":1207,"lenseconds":265,"lentime":"04:25"}},{"title":"RFWK","performer":"OMD","index":{"time":"24:32:00","frames":110400,"seconds":1472,"lenseconds":199,"lentime":"03:19"}},{"title":"Something About Us","performer":"Daft Punk","index":{"time":"27:51:60","frames":125385,"seconds":1671,"lenseconds":198,"lentime":"03:18"}},{"title":"Money","performer":"Michael Jackson","index":{"time":"31:09:00","frames":140175,"seconds":1869,"lenseconds":238,"lentime":"03:58"}},{"title":"Moonlight Dance","performer":"Sally Shapiro","index":{"time":"35:07:00","frames":158025,"seconds":2107,"lenseconds":197,"lentime":"03:17"}},{"title":"History","performer":"Groove Armada","index":{"time":"38:24:00","frames":172800,"seconds":2304,"lenseconds":236,"lentime":"03:56"}},{"title":"Starstrings","performer":"Jody Wisternoff","index":{"time":"42:20:00","frames":190500,"seconds":2540,"lenseconds":244,"lentime":"04:04"}},{"title":"Miracle (Bodgan Irkuk Remix)","performer":"Sally Shapiro","index":{"time":"46:24:00","frames":208800,"seconds":2784,"lenseconds":414,"lentime":"06:54"}},{"title":"Don't Be Afraid (Feat. Sally Shapiro)","performer":"Anoraak","index":{"time":"53:18:00","frames":239850,"seconds":3198,"lenseconds":196,"lentime":"03:16"}},{"title":"Hearts Collide","performer":"Little Boots","index":{"time":"56:34:60","frames":254610,"seconds":3394,"lenseconds":219,"lentime":"03:39"}},{"title":"Freelove (Sunset Session Mix) (with Bobo)","performer":"Blank & Jones","index":{"time":"60:13:00","frames":270975,"seconds":3613,"lenseconds":320,"lentime":"05:20"}},{"title":"Miracle Man (with Cathy Battistessa)","performer":"Blank & Jones","index":{"time":"65:33:00","frames":294975,"seconds":3933,"lenseconds":264,"lentime":"04:24"}},{"title":"Just Can't Get Enough","performer":"Nouvelle Vague","index":{"time":"69:57:00","frames":314775,"seconds":4197,"lenseconds":173,"lentime":"02:53"}}]}