Carefully constructed music sets for your aural pleasure
Aerodynamix 005 @ Frisky Radio May 2013 mixed by JuanP
http://www.friskyradio.com/show/aerodynamix/05-16-2013/
Progresive House. Download cuesheet here: http://goo.gl/mDrsb
1:00:00
progressive house, session, set
SHOW TRACKLIST
SHOW CUESHEET
SHOW TXT PL

LOAD IN AUDIO PLAYER

1
fuckmylife aka Joel Zimmerman
Moog Bass Plus Modular (SoundCloud Rip)
02:31
2
Derek Howell and Faskill
Un Poema Cinematografico (Original Mix)
07:48
3
BT
Skylarking (Original Mix)
06:33
4
Inkfish
Drums Are Not Dangerous (Cid Inc. Remix)
06:18
5
Gal Abutbul
Agam (Original Mix)
07:00
6
Dezza Presents Ariose
Departure
05:15
7
Alex Pich
Heavens (Mono Suono Remix)
06:30
8
D-Mad
At Night
05:15
9
Jaydee
Plastic Dreams (Koen Groeneveld Remix)
05:15
10
Arty
Vanilla Sky
04:30
11
fuckmylife aka Joel Zimmerman
Moog Bass Plus Modular (SoundCloud Rip) (Juan Prada Ending Remix)
03:05
PERFORMER "VA [Mixed by JuanP]" TITLE "Aerodynamix 005 @ FriskyRadio (May 2013)" FILE "20-va-aerodynamix_005_mixed_by_juan_prada_friskyradio-may2013.mp3" WAVE TRACK 01 AUDIO PERFORMER "fuckmylife aka Joel Zimmerman" TITLE "Moog Bass Plus Modular (SoundCloud Rip)" INDEX 01 00:00:00 TRACK 02 AUDIO PERFORMER "Derek Howell and Faskill" TITLE "Un Poema Cinematografico (Original Mix)" INDEX 01 02:31:00 TRACK 03 AUDIO PERFORMER "BT" TITLE "Skylarking (Original Mix)" INDEX 01 10:19:50 TRACK 04 AUDIO PERFORMER "Inkfish" TITLE "Drums Are Not Dangerous (Cid Inc. Remix)" INDEX 01 16:52:50 TRACK 05 AUDIO PERFORMER "Gal Abutbul" TITLE "Agam (Original Mix)" INDEX 01 23:10:50 TRACK 06 AUDIO PERFORMER "Dezza Presents Ariose" TITLE "Departure" INDEX 01 30:10:00 TRACK 07 AUDIO PERFORMER "Alex Pich" TITLE "Heavens (Mono Suono Remix)" INDEX 01 35:25:00 TRACK 08 AUDIO PERFORMER "D-Mad" TITLE "At Night" INDEX 01 41:55:00 TRACK 09 AUDIO PERFORMER "Jaydee" TITLE "Plastic Dreams (Koen Groeneveld Remix)" INDEX 01 47:10:00 TRACK 10 AUDIO PERFORMER "Arty" TITLE "Vanilla Sky" INDEX 01 52:25:00 TRACK 11 AUDIO PERFORMER "fuckmylife aka Joel Zimmerman" TITLE "Moog Bass Plus Modular (SoundCloud Rip) (Juan Prada Ending Remix)" INDEX 01 56:55:00
01 fuckmylife aka Joel Zimmerman - Moog Bass Plus Modular (SoundCloud Rip) 00:00 02 Derek Howell and Faskill - Un Poema Cinematografico (Original Mix) 02:31 03 BT - Skylarking (Original Mix) 10:19 04 Inkfish - Drums Are Not Dangerous (Cid Inc. Remix) 16:52 05 Gal Abutbul - Agam (Original Mix) 23:10 06 Dezza Presents Ariose - Departure 30:10 07 Alex Pich - Heavens (Mono Suono Remix) 35:25 08 D-Mad - At Night 41:55 09 Jaydee - Plastic Dreams (Koen Groeneveld Remix) 47:10 10 Arty - Vanilla Sky 52:25 11 fuckmylife aka Joel Zimmerman - Moog Bass Plus Modular (SoundCloud Rip) (Juan Prada Ending Remix) 56:55
Aerodynamix 005 @ Frisky Radio May 2013 mixed by JuanPdata/20-va-aerodynamix_005_mixed_by_juan_prada_friskyradio-may2013-500px.pngdata/20-va-aerodynamix_005_mixed_by_juan_prada_friskyradio-may2013.mp3data/20-va-aerodynamix_005_mixed_by_juan_prada_friskyradio-may2013.ogg
{"Cuesheet":{"performer":"VA [Mixed by JuanP]","title":"Aerodynamix 005 @ FriskyRadio (May 2013)","file":"20-va-aerodynamix_005_mixed_by_juan_prada_friskyradio-may2013.mp3"},"Track":[{"performer":"fuckmylife aka Joel Zimmerman","title":"Moog Bass Plus Modular (SoundCloud Rip)","index":{"time":"00:00:00","frames":0,"seconds":0,"lenseconds":151,"lentime":"02:31"}},{"performer":"Derek Howell and Faskill","title":"Un Poema Cinematografico (Original Mix)","index":{"time":"02:31:00","frames":11325,"seconds":151,"lenseconds":468,"lentime":"07:48"}},{"performer":"BT","title":"Skylarking (Original Mix)","index":{"time":"10:19:50","frames":46475,"seconds":619,"lenseconds":393,"lentime":"06:33"}},{"performer":"Inkfish","title":"Drums Are Not Dangerous (Cid Inc. Remix)","index":{"time":"16:52:50","frames":75950,"seconds":1012,"lenseconds":378,"lentime":"06:18"}},{"performer":"Gal Abutbul","title":"Agam (Original Mix)","index":{"time":"23:10:50","frames":104300,"seconds":1390,"lenseconds":420,"lentime":"07:00"}},{"performer":"Dezza Presents Ariose","title":"Departure","index":{"time":"30:10:00","frames":135750,"seconds":1810,"lenseconds":315,"lentime":"05:15"}},{"performer":"Alex Pich","title":"Heavens (Mono Suono Remix)","index":{"time":"35:25:00","frames":159375,"seconds":2125,"lenseconds":390,"lentime":"06:30"}},{"performer":"D-Mad","title":"At Night","index":{"time":"41:55:00","frames":188625,"seconds":2515,"lenseconds":315,"lentime":"05:15"}},{"performer":"Jaydee","title":"Plastic Dreams (Koen Groeneveld Remix)","index":{"time":"47:10:00","frames":212250,"seconds":2830,"lenseconds":315,"lentime":"05:15"}},{"performer":"Arty","title":"Vanilla Sky","index":{"time":"52:25:00","frames":235875,"seconds":3145,"lenseconds":270,"lentime":"04:30"}},{"performer":"fuckmylife aka Joel Zimmerman","title":"Moog Bass Plus Modular (SoundCloud Rip) (Juan Prada Ending Remix)","index":{"time":"56:55:00","frames":256125,"seconds":3415,"lenseconds":185,"lentime":"03:05"}}]}