Carefully constructed music sets for your aural pleasure
Aerodynamix 002 @ Frisky Radio February 2013 mixed by JuanP
http://www.friskyradio.com/show/aerodynamix/02-21-2013/
Progresive House, Tech House, Nu Dance, Vocal Trance... Download cuesheet here: http://goo.gl/u7UsC
1:00:00
progressive trance, nu disco, progressive house, electronic, session, set
SHOW TRACKLIST
SHOW CUESHEET
SHOW TXT PL

LOAD IN AUDIO PLAYER

1
Rone
Parade
05:33
2
Teenage Mutants & Andre Crom
Hanging On (Original Mix)
04:14
3
Black Van
Inside (Oliver Remix)
04:13
4
Lindstrom, Todd Terje
Lanzarote (Original Mix)
05:41
5
Guy Gerber Feat. Jaw
Steady (Original Mix)
05:24
6
Joel Zimmerman AKA fuckmylife
Arcadia
04:34
7
Friendy People
Music is improper (Martin Buttrich Remix)
04:35
8
Deadmau5
1981 (Weekend Heroes Mix)
05:04
9
Julian Jeweil
The Gang (Original Mix)
05:21
10
Ray Okpara
Chi This Wonder Up (Rodriguez Jr Remix)
04:49
11
Pachanga Boys
Time (Orginal Mix)
10:32
PERFORMER "VA [Mixed by JuanP]" TITLE "Aerodynamix 002 @ FriskyRadio (Feb 2013)" FILE "17-va-aerodynamix_002_mixed_by_juan_prada_friskyradio-feb2013.mp3" WAVE TRACK 01 AUDIO PERFORMER "Rone" TITLE "Parade" INDEX 01 00:00:00 TRACK 02 AUDIO PERFORMER "Teenage Mutants & Andre Crom" TITLE "Hanging On (Original Mix)" INDEX 01 05:33:00 TRACK 03 AUDIO PERFORMER "Black Van" TITLE "Inside (Oliver Remix)" INDEX 01 09:47:00 TRACK 04 AUDIO PERFORMER "Lindstrom, Todd Terje" TITLE "Lanzarote (Original Mix)" INDEX 01 14:00:00 TRACK 05 AUDIO PERFORMER "Guy Gerber Feat. Jaw" TITLE "Steady (Original Mix)" INDEX 01 19:41:00 TRACK 06 AUDIO PERFORMER "Joel Zimmerman AKA fuckmylife" TITLE "Arcadia" INDEX 01 25:05:00 TRACK 07 AUDIO PERFORMER "Friendy People" TITLE "Music is improper (Martin Buttrich Remix)" INDEX 01 29:39:00 TRACK 08 AUDIO PERFORMER "Deadmau5" TITLE "1981 (Weekend Heroes Mix)" INDEX 01 34:14:00 TRACK 09 AUDIO PERFORMER "Julian Jeweil" TITLE "The Gang (Original Mix)" INDEX 01 39:18:00 TRACK 10 AUDIO PERFORMER "Ray Okpara" TITLE "Chi This Wonder Up (Rodriguez Jr Remix)" INDEX 01 44:39:00 TRACK 11 AUDIO PERFORMER "Pachanga Boys" TITLE "Time (Orginal Mix)" INDEX 01 49:28:00
01 Rone - Parade 00:00 02 Teenage Mutants & Andre Crom - Hanging On (Original Mix) 05:33 03 Black Van - Inside (Oliver Remix) 09:47 04 Lindstrom, Todd Terje - Lanzarote (Original Mix) 14:00 05 Guy Gerber Feat. Jaw - Steady (Original Mix) 19:41 06 Joel Zimmerman AKA fuckmylife - Arcadia 25:05 07 Friendy People - Music is improper (Martin Buttrich Remix) 29:39 08 Deadmau5 - 1981 (Weekend Heroes Mix) 34:14 09 Julian Jeweil - The Gang (Original Mix) 39:18 10 Ray Okpara - Chi This Wonder Up (Rodriguez Jr Remix) 44:39 11 Pachanga Boys - Time (Orginal Mix) 49:28
Aerodynamix 002 @ Frisky Radio February 2013 mixed by JuanPdata/17-va-aerodynamix_002_mixed_by_juan_prada_friskyradio-feb2013.pngdata/17-va-aerodynamix_002_mixed_by_juan_prada_friskyradio-feb2013.mp3data/17-va-aerodynamix_002_mixed_by_juan_prada_friskyradio-feb2013.ogg
{"Cuesheet":{"performer":"VA [Mixed by JuanP]","title":"Aerodynamix 002 @ FriskyRadio (Feb 2013)","file":"17-va-aerodynamix_002_mixed_by_juan_prada_friskyradio-feb2013.mp3"},"Track":[{"performer":"Rone","title":"Parade","index":{"time":"00:00:00","frames":0,"seconds":0,"lenseconds":333,"lentime":"05:33"}},{"performer":"Teenage Mutants & Andre Crom","title":"Hanging On (Original Mix)","index":{"time":"05:33:00","frames":24975,"seconds":333,"lenseconds":254,"lentime":"04:14"}},{"performer":"Black Van","title":"Inside (Oliver Remix)","index":{"time":"09:47:00","frames":44025,"seconds":587,"lenseconds":253,"lentime":"04:13"}},{"performer":"Lindstrom, Todd Terje","title":"Lanzarote (Original Mix)","index":{"time":"14:00:00","frames":63000,"seconds":840,"lenseconds":341,"lentime":"05:41"}},{"performer":"Guy Gerber Feat. Jaw","title":"Steady (Original Mix)","index":{"time":"19:41:00","frames":88575,"seconds":1181,"lenseconds":324,"lentime":"05:24"}},{"performer":"Joel Zimmerman AKA fuckmylife","title":"Arcadia","index":{"time":"25:05:00","frames":112875,"seconds":1505,"lenseconds":274,"lentime":"04:34"}},{"performer":"Friendy People","title":"Music is improper (Martin Buttrich Remix)","index":{"time":"29:39:00","frames":133425,"seconds":1779,"lenseconds":275,"lentime":"04:35"}},{"performer":"Deadmau5","title":"1981 (Weekend Heroes Mix)","index":{"time":"34:14:00","frames":154050,"seconds":2054,"lenseconds":304,"lentime":"05:04"}},{"performer":"Julian Jeweil","title":"The Gang (Original Mix)","index":{"time":"39:18:00","frames":176850,"seconds":2358,"lenseconds":321,"lentime":"05:21"}},{"performer":"Ray Okpara","title":"Chi This Wonder Up (Rodriguez Jr Remix)","index":{"time":"44:39:00","frames":200925,"seconds":2679,"lenseconds":289,"lentime":"04:49"}},{"performer":"Pachanga Boys","title":"Time (Orginal Mix)","index":{"time":"49:28:00","frames":222600,"seconds":2968,"lenseconds":632,"lentime":"10:32"}}]}