Carefully constructed music sets for your aural pleasure
October 2012: Machine mixed by JuanP
Progresive House, Tech House, Vocal Trance... Download cuesheet here: http://goo.gl/PphVy
2:00:05
progressive trance, trance, progressive house, electronic, session, set
SHOW TRACKLIST
SHOW CUESHEET
SHOW TXT PL

LOAD IN AUDIO PLAYER

1
Sam Matters
Weight Off My Mind (Original Mix)
06:19
2
Kiko Navarro ft. C B
Soñando contigo (Kiko Navarro Re-Work of Yotam Avni RMX)
05:35
3
Kolsch feat. Troel Sabra Hamsen
All that matters (Original)
07:37
4
P8 and Answer42
Fragments (Guy J Remix)
07:07
5
Coqui Selection
Push Me! (Original Mix)
06:22
6
EDX
Sunset Miracles (Original Mix)
05:17
7
JackLNDN
There In Spirit (Original Mix)
08:08
8
Cosmic Gate & Andrew Bayer
Nothing Ever Lasts
06:01
9
Jaytech feat. Nathan Grainger
Labour Of Love
04:14
10
Zoo Brazil feat. Rasmus Kellerman
My Life
06:00
11
Fehrplay
Runaway (Original Mix)
04:53
12
Paul Keeley
Doormatica (Original Mix)
04:23
13
York
Touched By God (Original Album Mix)
07:07
14
Andy Duguid feat. Leah
Miracle Moments
05:48
15
Martire & Flashtech
Another World (Eleven.Five Remix)
06:16
16
Above & Beyond pres. Tranquility Base
Razorfish (Jerome Isma-Ae Remix)
04:44
17
The Thrillseekers feat. Stine Grove
Everything (Wellenrausch Remix)
06:45
18
Mark Norman feat. Celine
Colour my Eyes
06:00
19
JPL
Frolic
04:30
20
Zoo Brasil
Crossroads
04:43
21
Tesla Boy
Make Believe Ballroom
02:16
PERFORMER "VA [Mixed by JuanP]" TITLE "Machine (Oct 2012)" FILE "14-va-machine_mixed_by_juan_prada-(oct_2012).mp3" WAVE TRACK 01 AUDIO PERFORMER "Sam Matters" TITLE "Weight Off My Mind (Original Mix)" INDEX 01 00:00:00 TRACK 02 AUDIO PERFORMER "Kiko Navarro ft. C B" TITLE "Soñando contigo (Kiko Navarro Re-Work of Yotam Avni RMX)" INDEX 01 06:19:00 TRACK 03 AUDIO PERFORMER "Kolsch feat. Troel Sabra Hamsen" TITLE "All that matters (Original)" INDEX 01 11:54:00 TRACK 04 AUDIO PERFORMER "P8 and Answer42" TITLE "Fragments (Guy J Remix)" INDEX 01 19:31:00 TRACK 05 AUDIO PERFORMER "Coqui Selection" TITLE "Push Me! (Original Mix)" INDEX 01 26:38:00 TRACK 06 AUDIO PERFORMER "EDX" TITLE "Sunset Miracles (Original Mix)" INDEX 01 33:00:00 TRACK 07 AUDIO PERFORMER "JackLNDN" TITLE "There In Spirit (Original Mix)" INDEX 01 38:17:00 TRACK 08 AUDIO PERFORMER "Cosmic Gate & Andrew Bayer" TITLE "Nothing Ever Lasts" INDEX 01 46:25:00 TRACK 09 AUDIO PERFORMER "Jaytech feat. Nathan Grainger" TITLE "Labour Of Love" INDEX 01 52:26:00 TRACK 10 AUDIO PERFORMER "Zoo Brazil feat. Rasmus Kellerman" TITLE "My Life" INDEX 01 56:40:00 TRACK 11 AUDIO PERFORMER "Fehrplay" TITLE "Runaway (Original Mix)" INDEX 01 62:40:00 TRACK 12 AUDIO PERFORMER "Paul Keeley" TITLE "Doormatica (Original Mix)" INDEX 01 67:33:00 TRACK 13 AUDIO PERFORMER "York" TITLE "Touched By God (Original Album Mix)" INDEX 01 71:56:00 TRACK 14 AUDIO PERFORMER "Andy Duguid feat. Leah" TITLE "Miracle Moments" INDEX 01 79:03:00 TRACK 15 AUDIO PERFORMER "Martire & Flashtech" TITLE "Another World (Eleven.Five Remix)" INDEX 01 84:51:60 TRACK 16 AUDIO PERFORMER "Above & Beyond pres. Tranquility Base" TITLE "Razorfish (Jerome Isma-Ae Remix)" INDEX 01 91:07:00 TRACK 17 AUDIO PERFORMER "The Thrillseekers feat. Stine Grove" TITLE "Everything (Wellenrausch Remix)" INDEX 01 95:51:40 TRACK 18 AUDIO PERFORMER "Mark Norman feat. Celine" TITLE "Colour my Eyes" INDEX 01 102:36:60 TRACK 19 AUDIO PERFORMER "JPL" TITLE "Frolic" INDEX 01 108:36:00 TRACK 20 AUDIO PERFORMER "Zoo Brasil" TITLE "Crossroads" INDEX 01 113:06:510 TRACK 21 AUDIO PERFORMER "Tesla Boy" TITLE "Make Believe Ballroom" INDEX 01 117:49:00
01 Sam Matters - Weight Off My Mind (Original Mix) 00:00 02 Kiko Navarro ft. C B - Soñando contigo (Kiko Navarro Re-Work of Yotam Avni RMX) 06:19 03 Kolsch feat. Troel Sabra Hamsen - All that matters (Original) 11:54 04 P8 and Answer42 - Fragments (Guy J Remix) 19:31 05 Coqui Selection - Push Me! (Original Mix) 26:38 06 EDX - Sunset Miracles (Original Mix) 33:00 07 JackLNDN - There In Spirit (Original Mix) 38:17 08 Cosmic Gate & Andrew Bayer - Nothing Ever Lasts 46:25 09 Jaytech feat. Nathan Grainger - Labour Of Love 52:26 10 Zoo Brazil feat. Rasmus Kellerman - My Life 56:40 11 Fehrplay - Runaway (Original Mix) 62:40 12 Paul Keeley - Doormatica (Original Mix) 67:33 13 York - Touched By God (Original Album Mix) 71:56 14 Andy Duguid feat. Leah - Miracle Moments 79:03 15 Martire & Flashtech - Another World (Eleven.Five Remix) 84:51 16 Above & Beyond pres. Tranquility Base - Razorfish (Jerome Isma-Ae Remix) 91:07 17 The Thrillseekers feat. Stine Grove - Everything (Wellenrausch Remix) 95:51 18 Mark Norman feat. Celine - Colour my Eyes 102:3 19 JPL - Frolic 108:3 20 Zoo Brasil - Crossroads 113:0 21 Tesla Boy - Make Believe Ballroom 117:4
October 2012: Machine mixed by JuanPdata/14-va-machine_mixed_by_juan_prada-(oct_2012).pngdata/14-va-machine_mixed_by_juan_prada-(oct_2012).mp3data/14-va-machine_mixed_by_juan_prada-(oct_2012).ogg
{"Cuesheet":{"performer":"VA [Mixed by JuanP]","title":"Machine (Oct 2012)","file":"14-va-machine_mixed_by_juan_prada-(oct_2012).mp3"},"Track":[{"performer":"Sam Matters","title":"Weight Off My Mind (Original Mix)","index":{"time":"00:00:00","frames":0,"seconds":0,"lenseconds":379,"lentime":"06:19"}},{"performer":"Kiko Navarro ft. C B","title":"So\u00f1ando contigo (Kiko Navarro Re-Work of Yotam Avni RMX)","index":{"time":"06:19:00","frames":28425,"seconds":379,"lenseconds":335,"lentime":"05:35"}},{"performer":"Kolsch feat. Troel Sabra Hamsen","title":"All that matters (Original)","index":{"time":"11:54:00","frames":53550,"seconds":714,"lenseconds":457,"lentime":"07:37"}},{"performer":"P8 and Answer42","title":"Fragments (Guy J Remix)","index":{"time":"19:31:00","frames":87825,"seconds":1171,"lenseconds":427,"lentime":"07:07"}},{"performer":"Coqui Selection","title":"Push Me! (Original Mix)","index":{"time":"26:38:00","frames":119850,"seconds":1598,"lenseconds":382,"lentime":"06:22"}},{"performer":"EDX","title":"Sunset Miracles (Original Mix)","index":{"time":"33:00:00","frames":148500,"seconds":1980,"lenseconds":317,"lentime":"05:17"}},{"performer":"JackLNDN","title":"There In Spirit (Original Mix)","index":{"time":"38:17:00","frames":172275,"seconds":2297,"lenseconds":488,"lentime":"08:08"}},{"performer":"Cosmic Gate & Andrew Bayer","title":"Nothing Ever Lasts","index":{"time":"46:25:00","frames":208875,"seconds":2785,"lenseconds":361,"lentime":"06:01"}},{"performer":"Jaytech feat. Nathan Grainger","title":"Labour Of Love","index":{"time":"52:26:00","frames":235950,"seconds":3146,"lenseconds":254,"lentime":"04:14"}},{"performer":"Zoo Brazil feat. Rasmus Kellerman","title":"My Life","index":{"time":"56:40:00","frames":255000,"seconds":3400,"lenseconds":360,"lentime":"06:00"}},{"performer":"Fehrplay","title":"Runaway (Original Mix)","index":{"time":"62:40:00","frames":282000,"seconds":3760,"lenseconds":293,"lentime":"04:53"}},{"performer":"Paul Keeley","title":"Doormatica (Original Mix)","index":{"time":"67:33:00","frames":303975,"seconds":4053,"lenseconds":263,"lentime":"04:23"}},{"performer":"York","title":"Touched By God (Original Album Mix)","index":{"time":"71:56:00","frames":323700,"seconds":4316,"lenseconds":427,"lentime":"07:07"}},{"performer":"Andy Duguid feat. Leah","title":"Miracle Moments","index":{"time":"79:03:00","frames":355725,"seconds":4743,"lenseconds":348,"lentime":"05:48"}},{"performer":"Martire & Flashtech","title":"Another World (Eleven.Five Remix)","index":{"time":"84:51:60","frames":381885,"seconds":5091,"lenseconds":376,"lentime":"06:16"}},{"performer":"Above & Beyond pres. Tranquility Base","title":"Razorfish (Jerome Isma-Ae Remix)","index":{"time":"91:07:00","frames":410025,"seconds":5467,"lenseconds":284,"lentime":"04:44"}},{"performer":"The Thrillseekers feat. Stine Grove","title":"Everything (Wellenrausch Remix)","index":{"time":"95:51:40","frames":431365,"seconds":5751,"lenseconds":405,"lentime":"06:45"}},{"performer":"Mark Norman feat. Celine","title":"Colour my Eyes","index":{"time":"102:36:60","frames":461760,"seconds":6156,"lenseconds":360,"lentime":"06:00"}},{"performer":"JPL","title":"Frolic","index":{"time":"108:36:00","frames":488700,"seconds":6516,"lenseconds":270,"lentime":"04:30"}},{"performer":"Zoo Brasil","title":"Crossroads","index":{"time":"113:06:510","frames":509460,"seconds":6786,"lenseconds":283,"lentime":"04:43"}},{"performer":"Tesla Boy","title":"Make Believe Ballroom","index":{"time":"117:49:00","frames":530175,"seconds":7069,"lenseconds":136,"lentime":"02:16"}}]}