Carefully constructed music sets for your aural pleasure
Betamax 1080p CD2 Mixed by JuanP
Modern Retro Sounds selected and mixed by JuanP aka countach. Download cuesheet here: http://goo.gl/UY9WU
1:05:56
80s revival, techno, 80s, classic, electronic, session, set
SHOW TRACKLIST
SHOW CUESHEET
SHOW TXT PL

LOAD IN AUDIO PLAYER

1
D/A/D
Stranger in a Strange Land
02:57
2
D/A/D
The Look of Being Old
03:50
3
Touch Tone
Home
03:05
4
Lazerhawk
Electric Groove
04:15
5
Mitch Murder
Bertone's Theme
02:54
6
Protector 101
Fighting Spirit Tommy (I Can do It) Remix
05:14
7
Mitch Murder
Breaking Waves
04:24
8
Lazerhawk
Shoulder of Orion
04:14
9
Lifelike
So Electric
04:15
10
MPM aka Multipac
Summer of 84 (Flashworkx Remix)
05:02
11
Mitch Murder
Coup de Theâtre
03:46
12
Lazerhawk
So Close
03:37
13
Maethelvin
Delight
05:32
14
Lazerhawk
Dream Machine
03:19
15
Mitch Murder
The Heat is On
04:33
16
Electric Youth
Right Back to You
04:59
PERFORMER "VA [Mixed by JuanP]" TITLE "Betamax1080p CD2 countach Trackset" FILE "13-va-betamax1080p_mixed_by_juanp-cd2_countach_trackset-2012.mp3" WAVE TRACK 01 AUDIO PERFORMER "D/A/D" TITLE "Stranger in a Strange Land" INDEX 01 00:00:00 TRACK 02 AUDIO PERFORMER "D/A/D" TITLE "The Look of Being Old" INDEX 01 02:57:00 TRACK 03 AUDIO PERFORMER "Touch Tone" TITLE "Home" INDEX 01 06:47:00 TRACK 04 AUDIO PERFORMER "Lazerhawk" TITLE "Electric Groove" INDEX 01 09:52:80 TRACK 05 AUDIO PERFORMER "Mitch Murder" TITLE "Bertone's Theme" INDEX 01 14:07:80 TRACK 06 AUDIO PERFORMER "Protector 101" TITLE "Fighting Spirit Tommy (I Can do It) Remix" INDEX 01 17:01:00 TRACK 07 AUDIO PERFORMER "Mitch Murder" TITLE "Breaking Waves" INDEX 01 22:15:80 TRACK 08 AUDIO PERFORMER "Lazerhawk" TITLE "Shoulder of Orion" INDEX 01 26:39:20 TRACK 09 AUDIO PERFORMER "Lifelike" TITLE "So Electric" INDEX 01 30:53:00 TRACK 10 AUDIO PERFORMER "MPM aka Multipac" TITLE "Summer of 84 (Flashworkx Remix)" INDEX 01 35:08:80 TRACK 11 AUDIO PERFORMER "Mitch Murder" TITLE "Coup de Theâtre" INDEX 01 40:10:00 TRACK 12 AUDIO PERFORMER "Lazerhawk" TITLE "So Close" INDEX 01 43:56:00 TRACK 13 AUDIO PERFORMER "Maethelvin" TITLE "Delight" INDEX 01 47:33:60 TRACK 14 AUDIO PERFORMER "Lazerhawk" TITLE "Dream Machine" INDEX 01 53:05:00 TRACK 15 AUDIO PERFORMER "Mitch Murder" TITLE "The Heat is On" INDEX 01 56:24:00 TRACK 16 AUDIO PERFORMER "Electric Youth" TITLE "Right Back to You" INDEX 01 60:57:00
01 D/A/D - Stranger in a Strange Land 00:00 02 D/A/D - The Look of Being Old 02:57 03 Touch Tone - Home 06:47 04 Lazerhawk - Electric Groove 09:52 05 Mitch Murder - Bertone's Theme 14:07 06 Protector 101 - Fighting Spirit Tommy (I Can do It) Remix 17:01 07 Mitch Murder - Breaking Waves 22:15 08 Lazerhawk - Shoulder of Orion 26:39 09 Lifelike - So Electric 30:53 10 MPM aka Multipac - Summer of 84 (Flashworkx Remix) 35:08 11 Mitch Murder - Coup de Theâtre 40:10 12 Lazerhawk - So Close 43:56 13 Maethelvin - Delight 47:33 14 Lazerhawk - Dream Machine 53:05 15 Mitch Murder - The Heat is On 56:24 16 Electric Youth - Right Back to You 60:57
Betamax 1080p CD2 Mixed by JuanPdata/13-va-betamax1080p_mixed_by_juanp-cd2_countach_trackset-2012.pngdata/13-va-betamax1080p_mixed_by_juanp-cd2_countach_trackset-2012.mp3data/13-va-betamax1080p_mixed_by_juanp-cd2_countach_trackset-2012.ogg
{"Cuesheet":{"performer":"VA [Mixed by JuanP]","title":"Betamax1080p CD2 countach Trackset","file":"13-va-betamax1080p_mixed_by_juanp-cd2_countach_trackset-2012.mp3"},"Track":[{"performer":"D\/A\/D","title":"Stranger in a Strange Land","index":{"time":"00:00:00","frames":0,"seconds":0,"lenseconds":177,"lentime":"02:57"}},{"performer":"D\/A\/D","title":"The Look of Being Old","index":{"time":"02:57:00","frames":13275,"seconds":177,"lenseconds":230,"lentime":"03:50"}},{"performer":"Touch Tone","title":"Home","index":{"time":"06:47:00","frames":30525,"seconds":407,"lenseconds":185,"lentime":"03:05"}},{"performer":"Lazerhawk","title":"Electric Groove","index":{"time":"09:52:80","frames":44480,"seconds":592,"lenseconds":255,"lentime":"04:15"}},{"performer":"Mitch Murder","title":"Bertone's Theme","index":{"time":"14:07:80","frames":63605,"seconds":847,"lenseconds":174,"lentime":"02:54"}},{"performer":"Protector 101","title":"Fighting Spirit Tommy (I Can do It) Remix","index":{"time":"17:01:00","frames":76575,"seconds":1021,"lenseconds":314,"lentime":"05:14"}},{"performer":"Mitch Murder","title":"Breaking Waves","index":{"time":"22:15:80","frames":100205,"seconds":1335,"lenseconds":264,"lentime":"04:24"}},{"performer":"Lazerhawk","title":"Shoulder of Orion","index":{"time":"26:39:20","frames":119945,"seconds":1599,"lenseconds":254,"lentime":"04:14"}},{"performer":"Lifelike","title":"So Electric","index":{"time":"30:53:00","frames":138975,"seconds":1853,"lenseconds":255,"lentime":"04:15"}},{"performer":"MPM aka Multipac","title":"Summer of 84 (Flashworkx Remix)","index":{"time":"35:08:80","frames":158180,"seconds":2108,"lenseconds":302,"lentime":"05:02"}},{"performer":"Mitch Murder","title":"Coup de The\u00e2tre","index":{"time":"40:10:00","frames":180750,"seconds":2410,"lenseconds":226,"lentime":"03:46"}},{"performer":"Lazerhawk","title":"So Close","index":{"time":"43:56:00","frames":197700,"seconds":2636,"lenseconds":217,"lentime":"03:37"}},{"performer":"Maethelvin","title":"Delight","index":{"time":"47:33:60","frames":214035,"seconds":2853,"lenseconds":332,"lentime":"05:32"}},{"performer":"Lazerhawk","title":"Dream Machine","index":{"time":"53:05:00","frames":238875,"seconds":3185,"lenseconds":199,"lentime":"03:19"}},{"performer":"Mitch Murder","title":"The Heat is On","index":{"time":"56:24:00","frames":253800,"seconds":3384,"lenseconds":273,"lentime":"04:33"}},{"performer":"Electric Youth","title":"Right Back to You","index":{"time":"60:57:00","frames":274275,"seconds":3657,"lenseconds":299,"lentime":"04:59"}}]}