Carefully constructed music sets for your aural pleasure
Betamax 1080p CD1 Mixed by JuanP
Modern Retro Sounds selected by Jorge Azcoitia aka Yoshimura and mixed by JuanP aka countach. Download cuesheet here: http://goo.gl/M3Jos
1:00:26
80s revival, techno, 80s, classic, electronic, session, set
SHOW TRACKLIST
SHOW CUESHEET
SHOW TXT PL

LOAD IN AUDIO PLAYER

1
Tesla Boy
Make Believe Ballroom
02:09
2
Com Truise
Karoba (Digital Bonus)
02:48
3
Mitch Murder
Remember When
05:23
4
CHPSMKS
Night People (Final Edit)
03:11
5
Tesla Boy
Neon Love
06:01
6
Tangerine Dream
Love on a Real Train (SymbolOne RMX)
04:55
7
Lazerhawk
Beyond the Infinite Void
04:11
8
Miami Nights 1984
Clutch
01:54
9
Palm Highway Chase
Escape from New York
02:12
10
Miami Nights 1984
Ocean Drive
03:46
11
Lazerhawk
King of the Streets
04:09
12
Miami Nights 1984
Elevator of Love
02:42
13
Miami Nights 1984
Sunset Cruise
03:11
14
Lazerhawk
Interstellar
04:24
15
Lazerhawk
Overdrive
04:10
16
Lazerhawk
Lazerhawk's Theme
01:42
17
Miami Nights 1984
The Getaway
03:38
PERFORMER "VA [Mixed by JuanP]" TITLE "Betamax1080p CD1 Yoshimura Trackset" FILE "12-va-betamax1080p_mixed_by_juanp-cd1_yoshimura_trackset-2012.mp3" WAVE TRACK 01 AUDIO PERFORMER "Tesla Boy" TITLE "Make Believe Ballroom" INDEX 01 00:00:00 TRACK 02 AUDIO PERFORMER "Com Truise" TITLE "Karoba (Digital Bonus)" INDEX 01 02:09:00 TRACK 03 AUDIO PERFORMER "Mitch Murder" TITLE "Remember When" INDEX 01 04:57:00 TRACK 04 AUDIO PERFORMER "CHPSMKS" TITLE "Night People (Final Edit)" INDEX 01 10:20:00 TRACK 05 AUDIO PERFORMER "Tesla Boy" TITLE "Neon Love" INDEX 01 13:31:00 TRACK 06 AUDIO PERFORMER "Tangerine Dream" TITLE "Love on a Real Train (SymbolOne RMX)" INDEX 01 19:32:00 TRACK 07 AUDIO PERFORMER "Lazerhawk" TITLE "Beyond the Infinite Void" INDEX 01 24:27:00 TRACK 08 AUDIO PERFORMER "Miami Nights 1984" TITLE "Clutch" INDEX 01 28:38:00 TRACK 09 AUDIO PERFORMER "Palm Highway Chase" TITLE "Escape from New York" INDEX 01 30:32:00 TRACK 10 AUDIO PERFORMER "Miami Nights 1984" TITLE "Ocean Drive" INDEX 01 32:44:00 TRACK 11 AUDIO PERFORMER "Lazerhawk" TITLE "King of the Streets" INDEX 01 36:30:00 TRACK 12 AUDIO PERFORMER "Miami Nights 1984" TITLE "Elevator of Love" INDEX 01 40:39:70 TRACK 13 AUDIO PERFORMER "Miami Nights 1984" TITLE "Sunset Cruise" INDEX 01 43:21:00 TRACK 14 AUDIO PERFORMER "Lazerhawk" TITLE "Interstellar" INDEX 01 46:32:00 TRACK 15 AUDIO PERFORMER "Lazerhawk" TITLE "Overdrive" INDEX 01 50:56:40 TRACK 16 AUDIO PERFORMER "Lazerhawk" TITLE "Lazerhawk's Theme" INDEX 01 55:06:00 TRACK 17 AUDIO PERFORMER "Miami Nights 1984" TITLE "The Getaway" INDEX 01 56:48:00
01 Tesla Boy - Make Believe Ballroom 00:00 02 Com Truise - Karoba (Digital Bonus) 02:09 03 Mitch Murder - Remember When 04:57 04 CHPSMKS - Night People (Final Edit) 10:20 05 Tesla Boy - Neon Love 13:31 06 Tangerine Dream - Love on a Real Train (SymbolOne RMX) 19:32 07 Lazerhawk - Beyond the Infinite Void 24:27 08 Miami Nights 1984 - Clutch 28:38 09 Palm Highway Chase - Escape from New York 30:32 10 Miami Nights 1984 - Ocean Drive 32:44 11 Lazerhawk - King of the Streets 36:30 12 Miami Nights 1984 - Elevator of Love 40:39 13 Miami Nights 1984 - Sunset Cruise 43:21 14 Lazerhawk - Interstellar 46:32 15 Lazerhawk - Overdrive 50:56 16 Lazerhawk - Lazerhawk's Theme 55:06 17 Miami Nights 1984 - The Getaway 56:48
Betamax 1080p CD1 Mixed by JuanPdata/12-va-betamax1080p_mixed_by_juanp-cd1_yoshimura_trackset-2012.pngdata/12-va-betamax1080p_mixed_by_juanp-cd1_yoshimura_trackset-2012.mp3data/12-va-betamax1080p_mixed_by_juanp-cd1_yoshimura_trackset-2012.ogg
{"Cuesheet":{"performer":"VA [Mixed by JuanP]","title":"Betamax1080p CD1 Yoshimura Trackset","file":"12-va-betamax1080p_mixed_by_juanp-cd1_yoshimura_trackset-2012.mp3"},"Track":[{"performer":"Tesla Boy","title":"Make Believe Ballroom","index":{"time":"00:00:00","frames":0,"seconds":0,"lenseconds":129,"lentime":"02:09"}},{"performer":"Com Truise","title":"Karoba (Digital Bonus)","index":{"time":"02:09:00","frames":9675,"seconds":129,"lenseconds":168,"lentime":"02:48"}},{"performer":"Mitch Murder","title":"Remember When","index":{"time":"04:57:00","frames":22275,"seconds":297,"lenseconds":323,"lentime":"05:23"}},{"performer":"CHPSMKS","title":"Night People (Final Edit)","index":{"time":"10:20:00","frames":46500,"seconds":620,"lenseconds":191,"lentime":"03:11"}},{"performer":"Tesla Boy","title":"Neon Love","index":{"time":"13:31:00","frames":60825,"seconds":811,"lenseconds":361,"lentime":"06:01"}},{"performer":"Tangerine Dream","title":"Love on a Real Train (SymbolOne RMX)","index":{"time":"19:32:00","frames":87900,"seconds":1172,"lenseconds":295,"lentime":"04:55"}},{"performer":"Lazerhawk","title":"Beyond the Infinite Void","index":{"time":"24:27:00","frames":110025,"seconds":1467,"lenseconds":251,"lentime":"04:11"}},{"performer":"Miami Nights 1984","title":"Clutch","index":{"time":"28:38:00","frames":128850,"seconds":1718,"lenseconds":114,"lentime":"01:54"}},{"performer":"Palm Highway Chase","title":"Escape from New York","index":{"time":"30:32:00","frames":137400,"seconds":1832,"lenseconds":132,"lentime":"02:12"}},{"performer":"Miami Nights 1984","title":"Ocean Drive","index":{"time":"32:44:00","frames":147300,"seconds":1964,"lenseconds":226,"lentime":"03:46"}},{"performer":"Lazerhawk","title":"King of the Streets","index":{"time":"36:30:00","frames":164250,"seconds":2190,"lenseconds":249,"lentime":"04:09"}},{"performer":"Miami Nights 1984","title":"Elevator of Love","index":{"time":"40:39:70","frames":182995,"seconds":2439,"lenseconds":162,"lentime":"02:42"}},{"performer":"Miami Nights 1984","title":"Sunset Cruise","index":{"time":"43:21:00","frames":195075,"seconds":2601,"lenseconds":191,"lentime":"03:11"}},{"performer":"Lazerhawk","title":"Interstellar","index":{"time":"46:32:00","frames":209400,"seconds":2792,"lenseconds":264,"lentime":"04:24"}},{"performer":"Lazerhawk","title":"Overdrive","index":{"time":"50:56:40","frames":229240,"seconds":3056,"lenseconds":250,"lentime":"04:10"}},{"performer":"Lazerhawk","title":"Lazerhawk's Theme","index":{"time":"55:06:00","frames":247950,"seconds":3306,"lenseconds":102,"lentime":"01:42"}},{"performer":"Miami Nights 1984","title":"The Getaway","index":{"time":"56:48:00","frames":255600,"seconds":3408,"lenseconds":218,"lentime":"03:38"}}]}