Carefully constructed music sets for your aural pleasure
Aerodynamix 090 @ Frisky Radio November 2022 mixed by JuanP
Prog House / Melodic Techno
1:00:00
prog house, melodic techno
SHOW TRACKLIST
SHOW CUESHEET
SHOW TXT PL

LOAD IN AUDIO PLAYER

1
Tinlicker
When The Light Fades
05:26
2
ZOYA
Seasons (Extended Mix)
05:08
3
Boris Brejcha
Redemption
07:19
4
Marc Romboy, Stephan Bodzin
Callisto (Ben Böhmer Remix)
06:40
5
Paul Thomas, Chris Bekker
Apex (Black Mix)
05:35
6
Kryder, Natalie Shay
Rapture (Hugo Cantarra Extended Remix)
04:34
7
Nicky Elisabeth
Fading (Joris Voorn Extended Mix)
05:13
8
Pig&Dan
Sly Detector (Rework)
05:26
9
Joris Voorn
Too Little Too Late (feat. Underworld)
05:00
10
Olivia Foxglove & Hannes Bieger
Lucid Dream (Original Mix)
06:15
11
Marc Romboy, Stephan Bodzin
Callisto (Ben Böhmer Remix)
03:24
PERFORMER "VA [Mixed by JuanP]" TITLE "Aerodynamix 090 (November 2022) Frisky Radio" FILE "110-va-aerodynamix_090_mixed_by_juan_prada_friskyradio-nov2022.mp3" WAVE TRACK 01 AUDIO PERFORMER "Tinlicker" TITLE "When The Light Fades" INDEX 01 00:00:00 TRACK 02 AUDIO PERFORMER "ZOYA" TITLE "Seasons (Extended Mix)" INDEX 01 05:26:00 TRACK 03 AUDIO PERFORMER "Boris Brejcha" TITLE "Redemption" INDEX 01 10:34:00 TRACK 04 AUDIO PERFORMER "Marc Romboy, Stephan Bodzin" TITLE "Callisto (Ben Böhmer Remix)" INDEX 01 17:53:00 TRACK 05 AUDIO PERFORMER "Paul Thomas, Chris Bekker" TITLE "Apex (Black Mix)" INDEX 01 24:33:00 TRACK 06 AUDIO PERFORMER "Kryder, Natalie Shay" TITLE "Rapture (Hugo Cantarra Extended Remix)" INDEX 01 30:08:00 TRACK 07 AUDIO PERFORMER "Nicky Elisabeth" TITLE "Fading (Joris Voorn Extended Mix)" INDEX 01 34:42:00 TRACK 08 AUDIO PERFORMER "Pig&Dan" TITLE "Sly Detector (Rework)" INDEX 01 39:55:00 TRACK 09 AUDIO PERFORMER "Joris Voorn" TITLE "Too Little Too Late (feat. Underworld)" INDEX 01 45:21:00 TRACK 10 AUDIO PERFORMER "Olivia Foxglove & Hannes Bieger" TITLE "Lucid Dream (Original Mix)" INDEX 01 50:21:00 TRACK 11 AUDIO PERFORMER "Marc Romboy, Stephan Bodzin" TITLE "Callisto (Ben Böhmer Remix)" INDEX 01 56:36:00
01 Tinlicker - When The Light Fades 00:00 02 ZOYA - Seasons (Extended Mix) 05:26 03 Boris Brejcha - Redemption 10:34 04 Marc Romboy, Stephan Bodzin - Callisto (Ben Böhmer Remix) 17:53 05 Paul Thomas, Chris Bekker - Apex (Black Mix) 24:33 06 Kryder, Natalie Shay - Rapture (Hugo Cantarra Extended Remix) 30:08 07 Nicky Elisabeth - Fading (Joris Voorn Extended Mix) 34:42 08 Pig&Dan - Sly Detector (Rework) 39:55 09 Joris Voorn - Too Little Too Late (feat. Underworld) 45:21 10 Olivia Foxglove & Hannes Bieger - Lucid Dream (Original Mix) 50:21 11 Marc Romboy, Stephan Bodzin - Callisto (Ben Böhmer Remix) 56:36
Aerodynamix 090 @ Frisky Radio November 2022 mixed by JuanPdata/110-va-aerodynamix_090_mixed_by_juan_prada_friskyradio-nov2022-500px.pngdata/110-va-aerodynamix_090_mixed_by_juan_prada_friskyradio-nov2022.mp3data/110-va-aerodynamix_090_mixed_by_juan_prada_friskyradio-nov2022.ogg
{"Cuesheet":{"performer":"VA [Mixed by JuanP]","title":"Aerodynamix 090 (November 2022) Frisky Radio","file":"110-va-aerodynamix_090_mixed_by_juan_prada_friskyradio-nov2022.mp3"},"Track":[{"performer":"Tinlicker","title":"When The Light Fades","index":{"time":"00:00:00","frames":0,"seconds":0,"lenseconds":326,"lentime":"05:26"}},{"performer":"ZOYA","title":"Seasons (Extended Mix)","index":{"time":"05:26:00","frames":24450,"seconds":326,"lenseconds":308,"lentime":"05:08"}},{"performer":"Boris Brejcha","title":"Redemption","index":{"time":"10:34:00","frames":47550,"seconds":634,"lenseconds":439,"lentime":"07:19"}},{"performer":"Marc Romboy, Stephan Bodzin","title":"Callisto (Ben B\u00f6hmer Remix)","index":{"time":"17:53:00","frames":80475,"seconds":1073,"lenseconds":400,"lentime":"06:40"}},{"performer":"Paul Thomas, Chris Bekker","title":"Apex (Black Mix)","index":{"time":"24:33:00","frames":110475,"seconds":1473,"lenseconds":335,"lentime":"05:35"}},{"performer":"Kryder, Natalie Shay","title":"Rapture (Hugo Cantarra Extended Remix)","index":{"time":"30:08:00","frames":135600,"seconds":1808,"lenseconds":274,"lentime":"04:34"}},{"performer":"Nicky Elisabeth","title":"Fading (Joris Voorn Extended Mix)","index":{"time":"34:42:00","frames":156150,"seconds":2082,"lenseconds":313,"lentime":"05:13"}},{"performer":"Pig&Dan","title":"Sly Detector (Rework)","index":{"time":"39:55:00","frames":179625,"seconds":2395,"lenseconds":326,"lentime":"05:26"}},{"performer":"Joris Voorn","title":"Too Little Too Late (feat. Underworld)","index":{"time":"45:21:00","frames":204075,"seconds":2721,"lenseconds":300,"lentime":"05:00"}},{"performer":"Olivia Foxglove & Hannes Bieger","title":"Lucid Dream (Original Mix)","index":{"time":"50:21:00","frames":226575,"seconds":3021,"lenseconds":375,"lentime":"06:15"}},{"performer":"Marc Romboy, Stephan Bodzin","title":"Callisto (Ben B\u00f6hmer Remix)","index":{"time":"56:36:00","frames":254700,"seconds":3396,"lenseconds":204,"lentime":"03:24"}}]}