Carefully constructed music sets for your aural pleasure
Aerodynamix 088 @ Frisky Radio July 2022 mixed by JuanP
Organic House / Progressive House
1:00:00
organic house, progressive house
SHOW TRACKLIST
SHOW CUESHEET
SHOW TXT PL

LOAD IN AUDIO PLAYER

1
Tinlicker ft Hero Baldwin
Rebirth (Extended Dub)
05:16
2
Roger Shah & JES
Star crossed (Extended Mix)
03:39
3
Le Youth & Sultan + Shepard & Panama
New Love (Extended Mix)
05:12
4
Misty
Where Are You Now
04:56
5
Ric Niels
Vibranova
06:15
6
Madraas
Moments
03:23
7
mredrollo
Mr. Priority (Original Mix)
06:15
8
The Wash
Moody Sunday
06:14
9
Sandy Rivera & Rae
Hide U (Chicola Extended Remix)
05:59
10
Morttagua
Redroids (Original Mix)
05:16
11
Marsh
Fable
07:35
PERFORMER "VA [Mixed by JuanP]" TITLE "Aerodynamix 088 (June 2022) Frisky Radio" FILE "108-va-aerodynamix_088_mixed_by_juan_prada_friskyradio-jul2022.mp3" WAVE TRACK 01 AUDIO PERFORMER "Tinlicker ft Hero Baldwin" TITLE "Rebirth (Extended Dub)" INDEX 01 00:00:00 TRACK 02 AUDIO PERFORMER "Roger Shah & JES" TITLE "Star crossed (Extended Mix)" INDEX 01 05:16:00 TRACK 03 AUDIO PERFORMER "Le Youth & Sultan + Shepard & Panama" TITLE "New Love (Extended Mix)" INDEX 01 08:55:00 TRACK 04 AUDIO PERFORMER "Misty" TITLE "Where Are You Now" INDEX 01 14:07:00 TRACK 05 AUDIO PERFORMER "Ric Niels" TITLE "Vibranova" INDEX 01 19:03:00 TRACK 06 AUDIO PERFORMER "Madraas" TITLE "Moments" INDEX 01 25:18:00 TRACK 07 AUDIO PERFORMER "mredrollo" TITLE "Mr. Priority (Original Mix)" INDEX 01 28:41:00 TRACK 08 AUDIO PERFORMER "The Wash" TITLE "Moody Sunday" INDEX 01 34:56:00 TRACK 09 AUDIO PERFORMER "Sandy Rivera & Rae" TITLE "Hide U (Chicola Extended Remix)" INDEX 01 41:10:00 TRACK 10 AUDIO PERFORMER "Morttagua" TITLE "Redroids (Original Mix)" INDEX 01 47:09:00 TRACK 11 AUDIO PERFORMER "Marsh" TITLE "Fable" INDEX 01 52:25:00
01 Tinlicker ft Hero Baldwin - Rebirth (Extended Dub) 00:00 02 Roger Shah & JES - Star crossed (Extended Mix) 05:16 03 Le Youth & Sultan + Shepard & Panama - New Love (Extended Mix) 08:55 04 Misty - Where Are You Now 14:07 05 Ric Niels - Vibranova 19:03 06 Madraas - Moments 25:18 07 mredrollo - Mr. Priority (Original Mix) 28:41 08 The Wash - Moody Sunday 34:56 09 Sandy Rivera & Rae - Hide U (Chicola Extended Remix) 41:10 10 Morttagua - Redroids (Original Mix) 47:09 11 Marsh - Fable 52:25
Aerodynamix 088 @ Frisky Radio July 2022 mixed by JuanPdata/108-va-aerodynamix_088_mixed_by_juan_prada_friskyradio-jul2022-500px.pngdata/108-va-aerodynamix_088_mixed_by_juan_prada_friskyradio-jul2022.mp3data/108-va-aerodynamix_088_mixed_by_juan_prada_friskyradio-jul2022.ogg
{"Cuesheet":{"performer":"VA [Mixed by JuanP]","title":"Aerodynamix 088 (June 2022) Frisky Radio","file":"108-va-aerodynamix_088_mixed_by_juan_prada_friskyradio-jul2022.mp3"},"Track":[{"performer":"Tinlicker ft Hero Baldwin","title":"Rebirth (Extended Dub)","index":{"time":"00:00:00","frames":0,"seconds":0,"lenseconds":316,"lentime":"05:16"}},{"performer":"Roger Shah & JES","title":"Star crossed (Extended Mix)","index":{"time":"05:16:00","frames":23700,"seconds":316,"lenseconds":219,"lentime":"03:39"}},{"performer":"Le Youth & Sultan + Shepard & Panama","title":"New Love (Extended Mix)","index":{"time":"08:55:00","frames":40125,"seconds":535,"lenseconds":312,"lentime":"05:12"}},{"performer":"Misty","title":"Where Are You Now","index":{"time":"14:07:00","frames":63525,"seconds":847,"lenseconds":296,"lentime":"04:56"}},{"performer":"Ric Niels","title":"Vibranova","index":{"time":"19:03:00","frames":85725,"seconds":1143,"lenseconds":375,"lentime":"06:15"}},{"performer":"Madraas","title":"Moments","index":{"time":"25:18:00","frames":113850,"seconds":1518,"lenseconds":203,"lentime":"03:23"}},{"performer":"mredrollo","title":"Mr. Priority (Original Mix)","index":{"time":"28:41:00","frames":129075,"seconds":1721,"lenseconds":375,"lentime":"06:15"}},{"performer":"The Wash","title":"Moody Sunday","index":{"time":"34:56:00","frames":157200,"seconds":2096,"lenseconds":374,"lentime":"06:14"}},{"performer":"Sandy Rivera & Rae","title":"Hide U (Chicola Extended Remix)","index":{"time":"41:10:00","frames":185250,"seconds":2470,"lenseconds":359,"lentime":"05:59"}},{"performer":"Morttagua","title":"Redroids (Original Mix)","index":{"time":"47:09:00","frames":212175,"seconds":2829,"lenseconds":316,"lentime":"05:16"}},{"performer":"Marsh","title":"Fable","index":{"time":"52:25:00","frames":235875,"seconds":3145,"lenseconds":455,"lentime":"07:35"}}]}