Carefully constructed music sets for your aural pleasure
Aerodynamix 087 @ Frisky Radio May 2022 mixed by JuanP
Organic House / Progressive House
1:00:00
organic house, progressive house
SHOW TRACKLIST
SHOW CUESHEET
SHOW TXT PL

LOAD IN AUDIO PLAYER

1
MACY
Deeply Love (Original Mix)
06:32
2
Roy Rosenfeld, Sebastien Leger
Cherry On Top
06:40
3
Ric Niels, Mango
Trip To South (djimboh Remix)
04:50
4
Farid Hidden Tigress
Diamond Eyes (ltn Pres. Ghostbeat Extended Dub Remix)
04:48
5
Matt Lange
Rift (Alex O’Rion Extended Mix)
05:49
6
Yotto
Flares (Extended Mix)
03:09
7
Matthias Meyer, Budakid
Hybrid Society
04:56
8
Max Freegrant
Nazar (Stan Kolev Remix)
05:28
9
Kamilo Sanclemente
Honest
05:59
10
Jason Lange
Nebula (Original Mix)
06:27
11
The Wash
Manifest
05:22
PERFORMER "VA [Mixed by JuanP]" TITLE "Aerodynamix 087 (May 2022) Frisky Radio" FILE "107-va-aerodynamix_087_mixed_by_juan_prada_friskyradio-may2022.mp3" WAVE TRACK 01 AUDIO PERFORMER "MACY" TITLE "Deeply Love (Original Mix)" INDEX 01 00:00:00 TRACK 02 AUDIO PERFORMER "Roy Rosenfeld, Sebastien Leger" TITLE "Cherry On Top" INDEX 01 06:32:00 TRACK 03 AUDIO PERFORMER "Ric Niels, Mango" TITLE "Trip To South (djimboh Remix)" INDEX 01 13:12:00 TRACK 04 AUDIO PERFORMER "Farid Hidden Tigress" TITLE "Diamond Eyes (ltn Pres. Ghostbeat Extended Dub Remix)" INDEX 01 18:02:00 TRACK 05 AUDIO PERFORMER "Matt Lange" TITLE "Rift (Alex O’Rion Extended Mix)" INDEX 01 22:50:00 TRACK 06 AUDIO PERFORMER "Yotto" TITLE "Flares (Extended Mix)" INDEX 01 28:39:00 TRACK 07 AUDIO PERFORMER "Matthias Meyer, Budakid" TITLE "Hybrid Society" INDEX 01 31:48:00 TRACK 08 AUDIO PERFORMER "Max Freegrant" TITLE "Nazar (Stan Kolev Remix)" INDEX 01 36:44:00 TRACK 09 AUDIO PERFORMER "Kamilo Sanclemente" TITLE "Honest" INDEX 01 42:12:00 TRACK 10 AUDIO PERFORMER "Jason Lange" TITLE "Nebula (Original Mix)" INDEX 01 48:11:00 TRACK 11 AUDIO PERFORMER "The Wash" TITLE "Manifest" INDEX 01 54:38:00
01 MACY - Deeply Love (Original Mix) 00:00 02 Roy Rosenfeld, Sebastien Leger - Cherry On Top 06:32 03 Ric Niels, Mango - Trip To South (djimboh Remix) 13:12 04 Farid Hidden Tigress - Diamond Eyes (ltn Pres. Ghostbeat Extended Dub Remix) 18:02 05 Matt Lange - Rift (Alex O’Rion Extended Mix) 22:50 06 Yotto - Flares (Extended Mix) 28:39 07 Matthias Meyer, Budakid - Hybrid Society 31:48 08 Max Freegrant - Nazar (Stan Kolev Remix) 36:44 09 Kamilo Sanclemente - Honest 42:12 10 Jason Lange - Nebula (Original Mix) 48:11 11 The Wash - Manifest 54:38
Aerodynamix 087 @ Frisky Radio May 2022 mixed by JuanPdata/107-va-aerodynamix_087_mixed_by_juan_prada_friskyradio-may2022-500px.pngdata/107-va-aerodynamix_087_mixed_by_juan_prada_friskyradio-may2022.mp3data/107-va-aerodynamix_087_mixed_by_juan_prada_friskyradio-may2022.ogg
{"Cuesheet":{"performer":"VA [Mixed by JuanP]","title":"Aerodynamix 087 (May 2022) Frisky Radio","file":"107-va-aerodynamix_087_mixed_by_juan_prada_friskyradio-may2022.mp3"},"Track":[{"performer":"MACY","title":"Deeply Love (Original Mix)","index":{"time":"00:00:00","frames":0,"seconds":0,"lenseconds":392,"lentime":"06:32"}},{"performer":"Roy Rosenfeld, Sebastien Leger","title":"Cherry On Top","index":{"time":"06:32:00","frames":29400,"seconds":392,"lenseconds":400,"lentime":"06:40"}},{"performer":"Ric Niels, Mango","title":"Trip To South (djimboh Remix)","index":{"time":"13:12:00","frames":59400,"seconds":792,"lenseconds":290,"lentime":"04:50"}},{"performer":"Farid Hidden Tigress","title":"Diamond Eyes (ltn Pres. Ghostbeat Extended Dub Remix)","index":{"time":"18:02:00","frames":81150,"seconds":1082,"lenseconds":288,"lentime":"04:48"}},{"performer":"Matt Lange","title":"Rift (Alex O\u2019Rion Extended Mix)","index":{"time":"22:50:00","frames":102750,"seconds":1370,"lenseconds":349,"lentime":"05:49"}},{"performer":"Yotto","title":"Flares (Extended Mix)","index":{"time":"28:39:00","frames":128925,"seconds":1719,"lenseconds":189,"lentime":"03:09"}},{"performer":"Matthias Meyer, Budakid","title":"Hybrid Society","index":{"time":"31:48:00","frames":143100,"seconds":1908,"lenseconds":296,"lentime":"04:56"}},{"performer":"Max Freegrant","title":"Nazar (Stan Kolev Remix)","index":{"time":"36:44:00","frames":165300,"seconds":2204,"lenseconds":328,"lentime":"05:28"}},{"performer":"Kamilo Sanclemente","title":"Honest","index":{"time":"42:12:00","frames":189900,"seconds":2532,"lenseconds":359,"lentime":"05:59"}},{"performer":"Jason Lange","title":"Nebula (Original Mix)","index":{"time":"48:11:00","frames":216825,"seconds":2891,"lenseconds":387,"lentime":"06:27"}},{"performer":"The Wash","title":"Manifest","index":{"time":"54:38:00","frames":245850,"seconds":3278,"lenseconds":322,"lentime":"05:22"}}]}