Carefully constructed music sets for your aural pleasure
Aerodynamix 086 @ Frisky Radio March 2022 mixed by JuanP
Progressive House / Melodic Techno
1:00:00
progressive house, melodic techno
SHOW TRACKLIST
SHOW CUESHEET
SHOW TXT PL

LOAD IN AUDIO PLAYER

1
Lane 8
Watermelon Wormhole (Original Mix)
05:42
2
Tinlicker
Light Beam
02:49
3
Marsh
Another Planet (feat. Sun Ra) (Extended Mix)
03:35
4
Above & Beyond
Sun In Your Eyes (Spencer Brown Club Mix)
07:41
5
ARTBAT
Best of Me (feat. Sailor & I) (Original Mix)
08:34
6
D-Nox, Stereo Underground
Dolby
05:05
7
Motorcycle
As The Rush Comes (Cristoph Extended Mix)
06:06
8
Robert Babicz
Dark Flower (Joris Voorn Magnolia Mix)
05:04
9
Joris Voorn
Esquape
03:49
10
Rodriguez Jr.
Monolith Garden
06:44
11
19-26
Hundred Reasons
04:51
PERFORMER "VA [Mixed by JuanP]" TITLE "Aerodynamix 086 (March 2022) Frisky Radio" FILE "106-va-aerodynamix_086_mixed_by_juan_prada_friskyradio-mar2022.mp3" WAVE TRACK 01 AUDIO PERFORMER "Lane 8" TITLE "Watermelon Wormhole (Original Mix)" INDEX 01 00:00:00 TRACK 02 AUDIO PERFORMER "Tinlicker" TITLE "Light Beam" INDEX 01 05:42:00 TRACK 03 AUDIO PERFORMER "Marsh" TITLE "Another Planet (feat. Sun Ra) (Extended Mix)" INDEX 01 08:31:00 TRACK 04 AUDIO PERFORMER "Above & Beyond" TITLE "Sun In Your Eyes (Spencer Brown Club Mix)" INDEX 01 12:06:00 TRACK 05 AUDIO PERFORMER "ARTBAT" TITLE "Best of Me (feat. Sailor & I) (Original Mix)" INDEX 01 19:47:00 TRACK 06 AUDIO PERFORMER "D-Nox, Stereo Underground" TITLE "Dolby" INDEX 01 28:21:00 TRACK 07 AUDIO PERFORMER "Motorcycle" TITLE "As The Rush Comes (Cristoph Extended Mix)" INDEX 01 33:26:00 TRACK 08 AUDIO PERFORMER "Robert Babicz" TITLE "Dark Flower (Joris Voorn Magnolia Mix)" INDEX 01 39:32:00 TRACK 09 AUDIO PERFORMER "Joris Voorn" TITLE "Esquape" INDEX 01 44:36:00 TRACK 10 AUDIO PERFORMER "Rodriguez Jr." TITLE "Monolith Garden" INDEX 01 48:25:00 TRACK 11 AUDIO PERFORMER "19-26" TITLE "Hundred Reasons" INDEX 01 55:09:00
01 Lane 8 - Watermelon Wormhole (Original Mix) 00:00 02 Tinlicker - Light Beam 05:42 03 Marsh - Another Planet (feat. Sun Ra) (Extended Mix) 08:31 04 Above & Beyond - Sun In Your Eyes (Spencer Brown Club Mix) 12:06 05 ARTBAT - Best of Me (feat. Sailor & I) (Original Mix) 19:47 06 D-Nox, Stereo Underground - Dolby 28:21 07 Motorcycle - As The Rush Comes (Cristoph Extended Mix) 33:26 08 Robert Babicz - Dark Flower (Joris Voorn Magnolia Mix) 39:32 09 Joris Voorn - Esquape 44:36 10 Rodriguez Jr. - Monolith Garden 48:25 11 19-26 - Hundred Reasons 55:09
Aerodynamix 086 @ Frisky Radio March 2022 mixed by JuanPdata/106-va-aerodynamix_086_mixed_by_juan_prada_friskyradio-mar2022-500px.pngdata/106-va-aerodynamix_086_mixed_by_juan_prada_friskyradio-mar2022.mp3data/106-va-aerodynamix_086_mixed_by_juan_prada_friskyradio-mar2022.ogg
{"Cuesheet":{"performer":"VA [Mixed by JuanP]","title":"Aerodynamix 086 (March 2022) Frisky Radio","file":"106-va-aerodynamix_086_mixed_by_juan_prada_friskyradio-mar2022.mp3"},"Track":[{"performer":"Lane 8","title":"Watermelon Wormhole (Original Mix)","index":{"time":"00:00:00","frames":0,"seconds":0,"lenseconds":342,"lentime":"05:42"}},{"performer":"Tinlicker","title":"Light Beam","index":{"time":"05:42:00","frames":25650,"seconds":342,"lenseconds":169,"lentime":"02:49"}},{"performer":"Marsh","title":"Another Planet (feat. Sun Ra) (Extended Mix)","index":{"time":"08:31:00","frames":38325,"seconds":511,"lenseconds":215,"lentime":"03:35"}},{"performer":"Above & Beyond","title":"Sun In Your Eyes (Spencer Brown Club Mix)","index":{"time":"12:06:00","frames":54450,"seconds":726,"lenseconds":461,"lentime":"07:41"}},{"performer":"ARTBAT","title":"Best of Me (feat. Sailor & I) (Original Mix)","index":{"time":"19:47:00","frames":89025,"seconds":1187,"lenseconds":514,"lentime":"08:34"}},{"performer":"D-Nox, Stereo Underground","title":"Dolby","index":{"time":"28:21:00","frames":127575,"seconds":1701,"lenseconds":305,"lentime":"05:05"}},{"performer":"Motorcycle","title":"As The Rush Comes (Cristoph Extended Mix)","index":{"time":"33:26:00","frames":150450,"seconds":2006,"lenseconds":366,"lentime":"06:06"}},{"performer":"Robert Babicz","title":"Dark Flower (Joris Voorn Magnolia Mix)","index":{"time":"39:32:00","frames":177900,"seconds":2372,"lenseconds":304,"lentime":"05:04"}},{"performer":"Joris Voorn","title":"Esquape","index":{"time":"44:36:00","frames":200700,"seconds":2676,"lenseconds":229,"lentime":"03:49"}},{"performer":"Rodriguez Jr.","title":"Monolith Garden","index":{"time":"48:25:00","frames":217875,"seconds":2905,"lenseconds":404,"lentime":"06:44"}},{"performer":"19-26","title":"Hundred Reasons","index":{"time":"55:09:00","frames":248175,"seconds":3309,"lenseconds":291,"lentime":"04:51"}}]}