Carefully constructed music sets for your aural pleasure
Aerodynamix 085 @ Frisky Radio January 2022 mixed by JuanP
Indice Dance / Nu Disco / Techno
1:00:00
indice dance, nu disco, techno
SHOW TRACKLIST
SHOW CUESHEET
SHOW TXT PL

LOAD IN AUDIO PLAYER

1
Anyma, Delhia De France, Janus Rasmussen
Claire
04:49
2
Matthias Meyer, Budakid
Sweet Ease
05:18
3
Elderbrook
I ll Find My Way To You (Feat. Emmit Fenn)
04:13
4
Mark Hawkins
Fate
05:34
5
Kinky Sound
Lemon Haze
05:01
6
Whitesquare
Carte Blanche
04:30
7
Dish Dash, Alex Lur
Let Love Shine (Musumeci Remix)
04:09
8
Sasha Carassi
Solastalgia
05:52
9
Vhyce
Monde Reel (Catz`n Dogz Pride Mix)
03:38
10
Henri Bergmann, Wennink
Protection (Dodi Palese Remix)
04:10
11
Dosem
Eternal Summer (Marsh Extennded Remix)
04:10
12
Coeus
Alea (Original Mix)
04:41
13
Kylie Feat. House Gospel Choir
All The Lovers (JP Shameless Rework)
03:55
PERFORMER "VA [Mixed by JuanP]" TITLE "Aerodynamix 085 (January2021) Frisky Radio" FILE "102-va-aerodynamix_085_mixed_by_juan_prada_friskyradio-jan2022.mp3" WAVE TRACK 01 AUDIO PERFORMER "Anyma, Delhia De France, Janus Rasmussen" TITLE "Claire" INDEX 01 00:00:00 TRACK 02 AUDIO PERFORMER "Matthias Meyer, Budakid" TITLE "Sweet Ease" INDEX 01 04:49:00 TRACK 03 AUDIO PERFORMER "Elderbrook" TITLE "I ll Find My Way To You (Feat. Emmit Fenn)" INDEX 01 10:07:00 TRACK 04 AUDIO PERFORMER "Mark Hawkins" TITLE "Fate" INDEX 01 14:20:00 TRACK 05 AUDIO PERFORMER "Kinky Sound" TITLE "Lemon Haze" INDEX 01 19:54:00 TRACK 06 AUDIO PERFORMER "Whitesquare" TITLE "Carte Blanche" INDEX 01 24:55:00 TRACK 07 AUDIO PERFORMER "Dish Dash, Alex Lur" TITLE "Let Love Shine (Musumeci Remix)" INDEX 01 29:25:00 TRACK 08 AUDIO PERFORMER "Sasha Carassi" TITLE "Solastalgia" INDEX 01 33:34:00 TRACK 09 AUDIO PERFORMER "Vhyce" TITLE "Monde Reel (Catz`n Dogz Pride Mix)" INDEX 01 39:26:00 TRACK 10 AUDIO PERFORMER "Henri Bergmann, Wennink" TITLE "Protection (Dodi Palese Remix)" INDEX 01 43:04:00 TRACK 11 AUDIO PERFORMER "Dosem" TITLE "Eternal Summer (Marsh Extennded Remix)" INDEX 01 47:14:00 TRACK 12 AUDIO PERFORMER "Coeus" TITLE "Alea (Original Mix)" INDEX 01 51:24:00 TRACK 13 AUDIO PERFORMER "Kylie Feat. House Gospel Choir" TITLE "All The Lovers (JP Shameless Rework)" INDEX 01 56:05:00
01 Anyma, Delhia De France, Janus Rasmussen - Claire 00:00 02 Matthias Meyer, Budakid - Sweet Ease 04:49 03 Elderbrook - I ll Find My Way To You (Feat. Emmit Fenn) 10:07 04 Mark Hawkins - Fate 14:20 05 Kinky Sound - Lemon Haze 19:54 06 Whitesquare - Carte Blanche 24:55 07 Dish Dash, Alex Lur - Let Love Shine (Musumeci Remix) 29:25 08 Sasha Carassi - Solastalgia 33:34 09 Vhyce - Monde Reel (Catz`n Dogz Pride Mix) 39:26 10 Henri Bergmann, Wennink - Protection (Dodi Palese Remix) 43:04 11 Dosem - Eternal Summer (Marsh Extennded Remix) 47:14 12 Coeus - Alea (Original Mix) 51:24 13 Kylie Feat. House Gospel Choir - All The Lovers (JP Shameless Rework) 56:05
Aerodynamix 085 @ Frisky Radio January 2022 mixed by JuanPdata/102-va-aerodynamix_085_mixed_by_juan_prada_friskyradio-jan2022-500px.pngdata/102-va-aerodynamix_085_mixed_by_juan_prada_friskyradio-jan2022.mp3data/102-va-aerodynamix_085_mixed_by_juan_prada_friskyradio-jan2022.ogg
{"Cuesheet":{"performer":"VA [Mixed by JuanP]","title":"Aerodynamix 085 (January2021) Frisky Radio","file":"102-va-aerodynamix_085_mixed_by_juan_prada_friskyradio-jan2022.mp3"},"Track":[{"performer":"Anyma, Delhia De France, Janus Rasmussen","title":"Claire","index":{"time":"00:00:00","frames":0,"seconds":0,"lenseconds":289,"lentime":"04:49"}},{"performer":"Matthias Meyer, Budakid","title":"Sweet Ease","index":{"time":"04:49:00","frames":21675,"seconds":289,"lenseconds":318,"lentime":"05:18"}},{"performer":"Elderbrook","title":"I ll Find My Way To You (Feat. Emmit Fenn)","index":{"time":"10:07:00","frames":45525,"seconds":607,"lenseconds":253,"lentime":"04:13"}},{"performer":"Mark Hawkins","title":"Fate","index":{"time":"14:20:00","frames":64500,"seconds":860,"lenseconds":334,"lentime":"05:34"}},{"performer":"Kinky Sound","title":"Lemon Haze","index":{"time":"19:54:00","frames":89550,"seconds":1194,"lenseconds":301,"lentime":"05:01"}},{"performer":"Whitesquare","title":"Carte Blanche","index":{"time":"24:55:00","frames":112125,"seconds":1495,"lenseconds":270,"lentime":"04:30"}},{"performer":"Dish Dash, Alex Lur","title":"Let Love Shine (Musumeci Remix)","index":{"time":"29:25:00","frames":132375,"seconds":1765,"lenseconds":249,"lentime":"04:09"}},{"performer":"Sasha Carassi","title":"Solastalgia","index":{"time":"33:34:00","frames":151050,"seconds":2014,"lenseconds":352,"lentime":"05:52"}},{"performer":"Vhyce","title":"Monde Reel (Catz`n Dogz Pride Mix)","index":{"time":"39:26:00","frames":177450,"seconds":2366,"lenseconds":218,"lentime":"03:38"}},{"performer":"Henri Bergmann, Wennink","title":"Protection (Dodi Palese Remix)","index":{"time":"43:04:00","frames":193800,"seconds":2584,"lenseconds":250,"lentime":"04:10"}},{"performer":"Dosem","title":"Eternal Summer (Marsh Extennded Remix)","index":{"time":"47:14:00","frames":212550,"seconds":2834,"lenseconds":250,"lentime":"04:10"}},{"performer":"Coeus","title":"Alea (Original Mix)","index":{"time":"51:24:00","frames":231300,"seconds":3084,"lenseconds":281,"lentime":"04:41"}},{"performer":"Kylie Feat. House Gospel Choir","title":"All The Lovers (JP Shameless Rework)","index":{"time":"56:05:00","frames":252375,"seconds":3365,"lenseconds":235,"lentime":"03:55"}}]}