Carefully constructed music sets for your aural pleasure
Nov 2010: Vocal Progressive House Retrospectr by JuanP
Vocal dance/progressive house/trance quality hits. Download cuesheet here: http://goo.gl/DZsCy
1:07:45
progressive house, trance, house, vocal, electronic, session, set
SHOW TRACKLIST
SHOW CUESHEET
SHOW TXT PL

LOAD IN AUDIO PLAYER

1
Tiesto Feat. Priscilla Ann
I Am Strong
04:49
2
Dr. Kucho Feat. Marta Bola?os
La tarde se ha puesto triste (Original Mix)
05:33
3
Robyn with Kleerup
With Every Heartbeat (Pete Tong & Dave Seaman Remix)
04:36
4
Way Out West
Surrender (Henry Saiz Remix)
05:47
5
Offer Nissim Ft. Maya
That's the Way I Like It
05:21
6
Kristine W
Save My Soul (Gabriel and Dresden Vocal Mix)
05:26
7
Serge Devant
Addicted (Ft. Hadley)
04:57
8
Blank & Jones
Still The Same (Club Rome Mix)
03:59
9
Armin Van Buuren feat. Audrie Gallagher
Hold On To Me
04:34
10
DJ Tatana
Perfect Lies (Feat. Evelyn)
04:26
11
Armin Van Buuren with DJ Shadow
Going Wrong
04:35
12
Fragma
Tocas Miracle (Inpetto Remix)
05:56
13
Felix Stone feat. Goldillox
In This World (Def Digital Elevation Mix)
03:31
14
Richard Durand
No Way Home
04:15
PERFORMER "VA [Mixed by Juan Prada]" TITLE "November 2010: Vocal Progressive House Retrospective by JP" FILE "01-va-nov2010_vocal_progressive_house_restrospectr_mixed_by_juan_prada.mp3" WAVE TRACK 01 AUDIO TITLE "I Am Strong" PERFORMER "Tiesto Feat. Priscilla Ann" INDEX 01 00:00:00 TRACK 02 AUDIO TITLE "La tarde se ha puesto triste (Original Mix)" PERFORMER "Dr. Kucho Feat. Marta Bola?os" INDEX 01 04:49:00 TRACK 03 AUDIO TITLE "With Every Heartbeat (Pete Tong & Dave Seaman Remix)" PERFORMER "Robyn with Kleerup" INDEX 01 10:22:00 TRACK 04 AUDIO TITLE "Surrender (Henry Saiz Remix)" PERFORMER "Way Out West" INDEX 01 14:58:00 TRACK 05 AUDIO TITLE "That's the Way I Like It" PERFORMER "Offer Nissim Ft. Maya" INDEX 01 20:45:00 TRACK 06 AUDIO TITLE "Save My Soul (Gabriel and Dresden Vocal Mix)" PERFORMER "Kristine W" INDEX 01 26:06:00 TRACK 07 AUDIO TITLE "Addicted (Ft. Hadley)" PERFORMER "Serge Devant" INDEX 01 31:32:00 TRACK 08 AUDIO TITLE "Still The Same (Club Rome Mix)" PERFORMER "Blank & Jones" INDEX 01 36:29:00 TRACK 09 AUDIO TITLE "Hold On To Me" PERFORMER "Armin Van Buuren feat. Audrie Gallagher" INDEX 01 40:28:00 TRACK 10 AUDIO TITLE "Perfect Lies (Feat. Evelyn)" PERFORMER "DJ Tatana" INDEX 01 45:02:00 TRACK 11 AUDIO TITLE "Going Wrong" PERFORMER "Armin Van Buuren with DJ Shadow" INDEX 01 49:28:00 TRACK 12 AUDIO TITLE "Tocas Miracle (Inpetto Remix)" PERFORMER "Fragma" INDEX 01 54:03:00 TRACK 13 AUDIO TITLE "In This World (Def Digital Elevation Mix)" PERFORMER "Felix Stone feat. Goldillox" INDEX 01 59:59:50 TRACK 14 AUDIO TITLE "No Way Home" PERFORMER "Richard Durand" INDEX 01 63:30:00
01 Tiesto Feat. Priscilla Ann - I Am Strong 00:00 02 Dr. Kucho Feat. Marta Bola?os - La tarde se ha puesto triste (Original Mix) 04:49 03 Robyn with Kleerup - With Every Heartbeat (Pete Tong & Dave Seaman Remix) 10:22 04 Way Out West - Surrender (Henry Saiz Remix) 14:58 05 Offer Nissim Ft. Maya - That's the Way I Like It 20:45 06 Kristine W - Save My Soul (Gabriel and Dresden Vocal Mix) 26:06 07 Serge Devant - Addicted (Ft. Hadley) 31:32 08 Blank & Jones - Still The Same (Club Rome Mix) 36:29 09 Armin Van Buuren feat. Audrie Gallagher - Hold On To Me 40:28 10 DJ Tatana - Perfect Lies (Feat. Evelyn) 45:02 11 Armin Van Buuren with DJ Shadow - Going Wrong 49:28 12 Fragma - Tocas Miracle (Inpetto Remix) 54:03 13 Felix Stone feat. Goldillox - In This World (Def Digital Elevation Mix) 59:59 14 Richard Durand - No Way Home 63:30
Nov 2010: Vocal Progressive House Retrospectr by JuanPdata/01-va-nov2010_vocal_progressive_house_restrospectr_mixed_by_juan_prada.jpgdata/01-va-nov2010_vocal_progressive_house_restrospectr_mixed_by_juan_prada.mp3data/01-va-nov2010_vocal_progressive_house_restrospectr_mixed_by_juan_prada.ogg
{"Cuesheet":{"performer":"VA [Mixed by Juan Prada]","title":"November 2010: Vocal Progressive House Retrospective by JP","file":"01-va-nov2010_vocal_progressive_house_restrospectr_mixed_by_juan_prada.mp3"},"Track":[{"title":"I Am Strong","performer":"Tiesto Feat. Priscilla Ann","index":{"time":"00:00:00","frames":0,"seconds":0,"lenseconds":289,"lentime":"04:49"}},{"title":"La tarde se ha puesto triste (Original Mix)","performer":"Dr. Kucho Feat. Marta Bola?os","index":{"time":"04:49:00","frames":21675,"seconds":289,"lenseconds":333,"lentime":"05:33"}},{"title":"With Every Heartbeat (Pete Tong & Dave Seaman Remix)","performer":"Robyn with Kleerup","index":{"time":"10:22:00","frames":46650,"seconds":622,"lenseconds":276,"lentime":"04:36"}},{"title":"Surrender (Henry Saiz Remix)","performer":"Way Out West","index":{"time":"14:58:00","frames":67350,"seconds":898,"lenseconds":347,"lentime":"05:47"}},{"title":"That's the Way I Like It","performer":"Offer Nissim Ft. Maya","index":{"time":"20:45:00","frames":93375,"seconds":1245,"lenseconds":321,"lentime":"05:21"}},{"title":"Save My Soul (Gabriel and Dresden Vocal Mix)","performer":"Kristine W","index":{"time":"26:06:00","frames":117450,"seconds":1566,"lenseconds":326,"lentime":"05:26"}},{"title":"Addicted (Ft. Hadley)","performer":"Serge Devant","index":{"time":"31:32:00","frames":141900,"seconds":1892,"lenseconds":297,"lentime":"04:57"}},{"title":"Still The Same (Club Rome Mix)","performer":"Blank & Jones","index":{"time":"36:29:00","frames":164175,"seconds":2189,"lenseconds":239,"lentime":"03:59"}},{"title":"Hold On To Me","performer":"Armin Van Buuren feat. Audrie Gallagher","index":{"time":"40:28:00","frames":182100,"seconds":2428,"lenseconds":274,"lentime":"04:34"}},{"title":"Perfect Lies (Feat. Evelyn)","performer":"DJ Tatana","index":{"time":"45:02:00","frames":202650,"seconds":2702,"lenseconds":266,"lentime":"04:26"}},{"title":"Going Wrong","performer":"Armin Van Buuren with DJ Shadow","index":{"time":"49:28:00","frames":222600,"seconds":2968,"lenseconds":275,"lentime":"04:35"}},{"title":"Tocas Miracle (Inpetto Remix)","performer":"Fragma","index":{"time":"54:03:00","frames":243225,"seconds":3243,"lenseconds":356,"lentime":"05:56"}},{"title":"In This World (Def Digital Elevation Mix)","performer":"Felix Stone feat. Goldillox","index":{"time":"59:59:50","frames":269975,"seconds":3599,"lenseconds":211,"lentime":"03:31"}},{"title":"No Way Home","performer":"Richard Durand","index":{"time":"63:30:00","frames":285750,"seconds":3810,"lenseconds":255,"lentime":"04:15"}}]}