Carefully constructed music sets for your aural pleasure
Aerodynamix 081 @ Frisky Radio May 2021 mixed by JuanP
Melodic House / Prog House
1:00:00
melodic house,progressive house
SHOW TRACKLIST
SHOW CUESHEET
SHOW TXT PL

LOAD IN AUDIO PLAYER

1
Zeds Dead
Exit row
04:17
2
Spencer Brown
5th Concord (Original Mix)
05:41
3
Tim Engelhardt
Attached (Rodriguez Jr. Remix)
05:06
4
Jan Blomqvist
Maybe Not (Rodriguez Jr. Extended Remix)
04:54
5
Eelke Kleijn
Woodstock
04:38
6
Ben Bohmer
In Memoriam (Tim Green Remix)
06:39
7
Colyn, Maurits Colijn
Bridges In The Sky (Original Mix)
05:41
8
Paradoks
Flourish
06:27
9
Tube Berger Feat. Goatchy
All I Want
04:39
10
Sian Evans
Hide U (Tinlicker Extended Remix)
05:56
11
Malarkey
Rejoice (JuanP Extended Mix)
06:02
PERFORMER "VA [Mixed by JuanP]" TITLE "Aerodynamix 081 (May 2021) Frisky Radio" FILE "98-va-aerodynamix_081_mixed_by_juan_prada_friskyradio-may2021.mp3" WAVE TRACK 01 AUDIO PERFORMER "Zeds Dead" TITLE "Exit row" INDEX 01 00:00:00 TRACK 02 AUDIO PERFORMER "Spencer Brown" TITLE "5th Concord (Original Mix)" INDEX 01 04:17:00 TRACK 03 AUDIO PERFORMER "Tim Engelhardt" TITLE "Attached (Rodriguez Jr. Remix)" INDEX 01 09:58:00 TRACK 04 AUDIO PERFORMER "Jan Blomqvist" TITLE "Maybe Not (Rodriguez Jr. Extended Remix)" INDEX 01 15:04:00 TRACK 05 AUDIO PERFORMER "Eelke Kleijn" TITLE "Woodstock" INDEX 01 19:58:00 TRACK 06 AUDIO PERFORMER "Ben Bohmer" TITLE "In Memoriam (Tim Green Remix)" INDEX 01 24:36:00 TRACK 07 AUDIO PERFORMER "Colyn, Maurits Colijn" TITLE "Bridges In The Sky (Original Mix)" INDEX 01 31:15:00 TRACK 08 AUDIO PERFORMER "Paradoks" TITLE "Flourish" INDEX 01 36:56:00 TRACK 09 AUDIO PERFORMER "Tube Berger Feat. Goatchy" TITLE "All I Want" INDEX 01 43:23:00 TRACK 10 AUDIO PERFORMER "Sian Evans" TITLE "Hide U (Tinlicker Extended Remix)" INDEX 01 48:02:00 TRACK 11 AUDIO PERFORMER "Malarkey" TITLE "Rejoice (JuanP Extended Mix)" INDEX 01 53:58:00
01 Zeds Dead - Exit row 00:00 02 Spencer Brown - 5th Concord (Original Mix) 04:17 03 Tim Engelhardt - Attached (Rodriguez Jr. Remix) 09:58 04 Jan Blomqvist - Maybe Not (Rodriguez Jr. Extended Remix) 15:04 05 Eelke Kleijn - Woodstock 19:58 06 Ben Bohmer - In Memoriam (Tim Green Remix) 24:36 07 Colyn, Maurits Colijn - Bridges In The Sky (Original Mix) 31:15 08 Paradoks - Flourish 36:56 09 Tube Berger Feat. Goatchy - All I Want 43:23 10 Sian Evans - Hide U (Tinlicker Extended Remix) 48:02 11 Malarkey - Rejoice (JuanP Extended Mix) 53:58
Aerodynamix 081 @ Frisky Radio May 2021 mixed by JuanPdata/98-va-aerodynamix_081_mixed_by_juan_prada_friskyradio-may2021-500px.pngdata/98-va-aerodynamix_081_mixed_by_juan_prada_friskyradio-may2021.mp3data/98-va-aerodynamix_081_mixed_by_juan_prada_friskyradio-may2021.ogg
{"Cuesheet":{"performer":"VA [Mixed by JuanP]","title":"Aerodynamix 081 (May 2021) Frisky Radio","file":"98-va-aerodynamix_081_mixed_by_juan_prada_friskyradio-may2021.mp3"},"Track":[{"performer":"Zeds Dead","title":"Exit row","index":{"time":"00:00:00","frames":0,"seconds":0,"lenseconds":257,"lentime":"04:17"}},{"performer":"Spencer Brown","title":"5th Concord (Original Mix)","index":{"time":"04:17:00","frames":19275,"seconds":257,"lenseconds":341,"lentime":"05:41"}},{"performer":"Tim Engelhardt","title":"Attached (Rodriguez Jr. Remix)","index":{"time":"09:58:00","frames":44850,"seconds":598,"lenseconds":306,"lentime":"05:06"}},{"performer":"Jan Blomqvist","title":"Maybe Not (Rodriguez Jr. Extended Remix)","index":{"time":"15:04:00","frames":67800,"seconds":904,"lenseconds":294,"lentime":"04:54"}},{"performer":"Eelke Kleijn","title":"Woodstock","index":{"time":"19:58:00","frames":89850,"seconds":1198,"lenseconds":278,"lentime":"04:38"}},{"performer":"Ben Bohmer","title":"In Memoriam (Tim Green Remix)","index":{"time":"24:36:00","frames":110700,"seconds":1476,"lenseconds":399,"lentime":"06:39"}},{"performer":"Colyn, Maurits Colijn","title":"Bridges In The Sky (Original Mix)","index":{"time":"31:15:00","frames":140625,"seconds":1875,"lenseconds":341,"lentime":"05:41"}},{"performer":"Paradoks","title":"Flourish","index":{"time":"36:56:00","frames":166200,"seconds":2216,"lenseconds":387,"lentime":"06:27"}},{"performer":"Tube Berger Feat. Goatchy","title":"All I Want","index":{"time":"43:23:00","frames":195225,"seconds":2603,"lenseconds":279,"lentime":"04:39"}},{"performer":"Sian Evans","title":"Hide U (Tinlicker Extended Remix)","index":{"time":"48:02:00","frames":216150,"seconds":2882,"lenseconds":356,"lentime":"05:56"}},{"performer":"Malarkey","title":"Rejoice (JuanP Extended Mix)","index":{"time":"53:58:00","frames":242850,"seconds":3238,"lenseconds":362,"lentime":"06:02"}}]}