Carefully constructed music sets for your aural pleasure
Aerodynamix 080 @ Frisky Radio March 2021 mixed by JuanP
Progressive House
1:00:00
progressive house
SHOW TRACKLIST
SHOW CUESHEET
SHOW TXT PL

LOAD IN AUDIO PLAYER

1
Da Fresh & Randy Seidman
On It (D Nox & Beckers Remix)
06:35
2
Yotto, Cassian
Inter
06:11
3
Jean Vayat, Evelynka
Your Rain (Moonwalk Remix)
05:25
4
Marius Drescher
We Had It All
05:10
5
Eelke Kleijn
The Hierophant
04:41
6
Einmusik, Stereo Express
Endurance
05:33
7
Rodriguez Jr.
Pegasus
06:03
8
Junior Jack, Pat Bds
Klimax (Patrice Baumel Remix)
06:05
9
Moonwalk
Solaris (Original Mix)
05:27
10
Robert Miles
Children (Undercatt Remix)
06:08
11
Spencer Brown
Nevada (Original Mix) (Edit)
02:42
PERFORMER "VA [Mixed by JuanP]" TITLE "Aerodynamix 080 (March 2021) Frisky Radio" FILE "97-va-aerodynamix_080_mixed_by_juan_prada_friskyradio-mar2021.mp3" WAVE TRACK 01 AUDIO PERFORMER "Da Fresh & Randy Seidman" TITLE "On It (D Nox & Beckers Remix)" INDEX 01 00:00:00 TRACK 02 AUDIO PERFORMER "Yotto, Cassian" TITLE "Inter" INDEX 01 06:35:00 TRACK 03 AUDIO PERFORMER "Jean Vayat, Evelynka" TITLE "Your Rain (Moonwalk Remix)" INDEX 01 12:46:00 TRACK 04 AUDIO PERFORMER "Marius Drescher" TITLE "We Had It All" INDEX 01 18:11:00 TRACK 05 AUDIO PERFORMER "Eelke Kleijn" TITLE "The Hierophant" INDEX 01 23:21:00 TRACK 06 AUDIO PERFORMER "Einmusik, Stereo Express" TITLE "Endurance" INDEX 01 28:02:00 TRACK 07 AUDIO PERFORMER "Rodriguez Jr." TITLE "Pegasus" INDEX 01 33:35:00 TRACK 08 AUDIO PERFORMER "Junior Jack, Pat Bds" TITLE "Klimax (Patrice Baumel Remix)" INDEX 01 39:38:00 TRACK 09 AUDIO PERFORMER "Moonwalk" TITLE "Solaris (Original Mix)" INDEX 01 45:43:00 TRACK 10 AUDIO PERFORMER "Robert Miles" TITLE "Children (Undercatt Remix)" INDEX 01 51:10:00 TRACK 11 AUDIO PERFORMER "Spencer Brown" TITLE "Nevada (Original Mix) (Edit)" INDEX 01 57:18:00
01 Da Fresh & Randy Seidman - On It (D Nox & Beckers Remix) 00:00 02 Yotto, Cassian - Inter 06:35 03 Jean Vayat, Evelynka - Your Rain (Moonwalk Remix) 12:46 04 Marius Drescher - We Had It All 18:11 05 Eelke Kleijn - The Hierophant 23:21 06 Einmusik, Stereo Express - Endurance 28:02 07 Rodriguez Jr. - Pegasus 33:35 08 Junior Jack, Pat Bds - Klimax (Patrice Baumel Remix) 39:38 09 Moonwalk - Solaris (Original Mix) 45:43 10 Robert Miles - Children (Undercatt Remix) 51:10 11 Spencer Brown - Nevada (Original Mix) (Edit) 57:18
Aerodynamix 080 @ Frisky Radio March 2021 mixed by JuanPdata/97-va-aerodynamix_080_mixed_by_juan_prada_friskyradio-mar2021-500px.pngdata/97-va-aerodynamix_080_mixed_by_juan_prada_friskyradio-mar2021.mp3data/97-va-aerodynamix_080_mixed_by_juan_prada_friskyradio-mar2021.ogg
{"Cuesheet":{"performer":"VA [Mixed by JuanP]","title":"Aerodynamix 080 (March 2021) Frisky Radio","file":"97-va-aerodynamix_080_mixed_by_juan_prada_friskyradio-mar2021.mp3"},"Track":[{"performer":"Da Fresh & Randy Seidman","title":"On It (D Nox & Beckers Remix)","index":{"time":"00:00:00","frames":0,"seconds":0,"lenseconds":395,"lentime":"06:35"}},{"performer":"Yotto, Cassian","title":"Inter","index":{"time":"06:35:00","frames":29625,"seconds":395,"lenseconds":371,"lentime":"06:11"}},{"performer":"Jean Vayat, Evelynka","title":"Your Rain (Moonwalk Remix)","index":{"time":"12:46:00","frames":57450,"seconds":766,"lenseconds":325,"lentime":"05:25"}},{"performer":"Marius Drescher","title":"We Had It All","index":{"time":"18:11:00","frames":81825,"seconds":1091,"lenseconds":310,"lentime":"05:10"}},{"performer":"Eelke Kleijn","title":"The Hierophant","index":{"time":"23:21:00","frames":105075,"seconds":1401,"lenseconds":281,"lentime":"04:41"}},{"performer":"Einmusik, Stereo Express","title":"Endurance","index":{"time":"28:02:00","frames":126150,"seconds":1682,"lenseconds":333,"lentime":"05:33"}},{"performer":"Rodriguez Jr.","title":"Pegasus","index":{"time":"33:35:00","frames":151125,"seconds":2015,"lenseconds":363,"lentime":"06:03"}},{"performer":"Junior Jack, Pat Bds","title":"Klimax (Patrice Baumel Remix)","index":{"time":"39:38:00","frames":178350,"seconds":2378,"lenseconds":365,"lentime":"06:05"}},{"performer":"Moonwalk","title":"Solaris (Original Mix)","index":{"time":"45:43:00","frames":205725,"seconds":2743,"lenseconds":327,"lentime":"05:27"}},{"performer":"Robert Miles","title":"Children (Undercatt Remix)","index":{"time":"51:10:00","frames":230250,"seconds":3070,"lenseconds":368,"lentime":"06:08"}},{"performer":"Spencer Brown","title":"Nevada (Original Mix) (Edit)","index":{"time":"57:18:00","frames":257850,"seconds":3438,"lenseconds":162,"lentime":"02:42"}}]}