Carefully constructed music sets for your aural pleasure
Aerodynamix 079 @ Frisky Radio January 2021 mixed by JuanP
Progressive House
1:00:00
progressive house
SHOW TRACKLIST
SHOW CUESHEET
SHOW TXT PL

LOAD IN AUDIO PLAYER

1
Fatima Yamaha
Sazak Bay
05:18
2
Marsh Feat. Mimi Page
Foss
05:15
3
Eelke Kleijn
Distance
04:16
4
Yotto
Another Riff For The Good Times
04:27
5
Marsh
Lost In You
05:47
6
Kamilo Sanclemente, Dabeat
Canis (Jerome Isma-Ae Remix)
06:30
7
The Dualz
Beyond (Extended Mix)
06:34
8
Carl Dern
Eyes Up
06:35
9
Willscape
Portal
03:49
10
Mode Apart
Voyage
05:28
11
Coeus
Hyper
06:01
PERFORMER "VA [Mixed by JuanP]" TITLE "Aerodynamix 079 (January 2021) Frisky Radio" FILE "96-va-aerodynamix_079_mixed_by_juan_prada_friskyradio-jan2021.mp3" WAVE TRACK 01 AUDIO PERFORMER "Fatima Yamaha" TITLE "Sazak Bay" INDEX 01 00:00:00 TRACK 02 AUDIO PERFORMER "Marsh Feat. Mimi Page" TITLE "Foss" INDEX 01 05:18:00 TRACK 03 AUDIO PERFORMER "Eelke Kleijn" TITLE "Distance" INDEX 01 10:33:00 TRACK 04 AUDIO PERFORMER "Yotto" TITLE "Another Riff For The Good Times" INDEX 01 14:49:00 TRACK 05 AUDIO PERFORMER "Marsh" TITLE "Lost In You" INDEX 01 19:16:00 TRACK 06 AUDIO PERFORMER "Kamilo Sanclemente, Dabeat" TITLE "Canis (Jerome Isma-Ae Remix)" INDEX 01 25:03:00 TRACK 07 AUDIO PERFORMER "The Dualz" TITLE "Beyond (Extended Mix)" INDEX 01 31:33:00 TRACK 08 AUDIO PERFORMER "Carl Dern" TITLE "Eyes Up" INDEX 01 38:07:00 TRACK 09 AUDIO PERFORMER "Willscape" TITLE "Portal" INDEX 01 44:42:00 TRACK 10 AUDIO PERFORMER "Mode Apart" TITLE "Voyage" INDEX 01 48:31:00 TRACK 11 AUDIO PERFORMER "Coeus" TITLE "Hyper" INDEX 01 53:59:00
01 Fatima Yamaha - Sazak Bay 00:00 02 Marsh Feat. Mimi Page - Foss 05:18 03 Eelke Kleijn - Distance 10:33 04 Yotto - Another Riff For The Good Times 14:49 05 Marsh - Lost In You 19:16 06 Kamilo Sanclemente, Dabeat - Canis (Jerome Isma-Ae Remix) 25:03 07 The Dualz - Beyond (Extended Mix) 31:33 08 Carl Dern - Eyes Up 38:07 09 Willscape - Portal 44:42 10 Mode Apart - Voyage 48:31 11 Coeus - Hyper 53:59
Aerodynamix 079 @ Frisky Radio January 2021 mixed by JuanPdata/96-va-aerodynamix_079_mixed_by_juan_prada_friskyradio-jan2021-500px.pngdata/96-va-aerodynamix_079_mixed_by_juan_prada_friskyradio-jan2021.mp3data/96-va-aerodynamix_079_mixed_by_juan_prada_friskyradio-jan2021.ogg
{"Cuesheet":{"performer":"VA [Mixed by JuanP]","title":"Aerodynamix 079 (January 2021) Frisky Radio","file":"96-va-aerodynamix_079_mixed_by_juan_prada_friskyradio-jan2021.mp3"},"Track":[{"performer":"Fatima Yamaha","title":"Sazak Bay","index":{"time":"00:00:00","frames":0,"seconds":0,"lenseconds":318,"lentime":"05:18"}},{"performer":"Marsh Feat. Mimi Page","title":"Foss","index":{"time":"05:18:00","frames":23850,"seconds":318,"lenseconds":315,"lentime":"05:15"}},{"performer":"Eelke Kleijn","title":"Distance","index":{"time":"10:33:00","frames":47475,"seconds":633,"lenseconds":256,"lentime":"04:16"}},{"performer":"Yotto","title":"Another Riff For The Good Times","index":{"time":"14:49:00","frames":66675,"seconds":889,"lenseconds":267,"lentime":"04:27"}},{"performer":"Marsh","title":"Lost In You","index":{"time":"19:16:00","frames":86700,"seconds":1156,"lenseconds":347,"lentime":"05:47"}},{"performer":"Kamilo Sanclemente, Dabeat","title":"Canis (Jerome Isma-Ae Remix)","index":{"time":"25:03:00","frames":112725,"seconds":1503,"lenseconds":390,"lentime":"06:30"}},{"performer":"The Dualz","title":"Beyond (Extended Mix)","index":{"time":"31:33:00","frames":141975,"seconds":1893,"lenseconds":394,"lentime":"06:34"}},{"performer":"Carl Dern","title":"Eyes Up","index":{"time":"38:07:00","frames":171525,"seconds":2287,"lenseconds":395,"lentime":"06:35"}},{"performer":"Willscape","title":"Portal","index":{"time":"44:42:00","frames":201150,"seconds":2682,"lenseconds":229,"lentime":"03:49"}},{"performer":"Mode Apart","title":"Voyage","index":{"time":"48:31:00","frames":218325,"seconds":2911,"lenseconds":328,"lentime":"05:28"}},{"performer":"Coeus","title":"Hyper","index":{"time":"53:59:00","frames":242925,"seconds":3239,"lenseconds":361,"lentime":"06:01"}}]}