Carefully constructed music sets for your aural pleasure
Aerodynamix 078 @ Frisky Radio November 2020 mixed by JuanP
Progressive House / Melodic Techno
1:00:00
progressive house, melodic techno
SHOW TRACKLIST
SHOW CUESHEET
SHOW TXT PL

LOAD IN AUDIO PLAYER

1
Yotto, Lane 8
Buggy
06:50
2
Max Freegrant Slow Fish
Elon On Mars (Original Mix)
06:14
3
Copini, Thomas Rossoni
Never Alone (Extended Mix)
05:59
4
Quivver
That Is Correct
04:26
5
D-nox, Gai Barone
Sound Of The Wind
05:51
6
Deltium
Equinox (Original Mix)
06:30
7
Morttagua
Tesla (Original Mix)
05:27
8
ATTLAS
Seabreeze
04:06
9
Grum
The Pledge (Extended Version)
04:42
10
Boskii
The Final Time
04:04
11
Yotto feat Sønin and Laudic
Hear Me Out
05:51
PERFORMER "VA [Mixed by JuanP]" TITLE "Aerodynamix 078 (November 2020) Frisky Radio" FILE "95-va-aerodynamix_078_mixed_by_juan_prada_friskyradio-nov2020.mp3" WAVE TRACK 01 AUDIO PERFORMER "Yotto, Lane 8" TITLE "Buggy" INDEX 01 00:00:00 TRACK 02 AUDIO PERFORMER "Max Freegrant Slow Fish" TITLE "Elon On Mars (Original Mix)" INDEX 01 06:50:00 TRACK 03 AUDIO PERFORMER "Copini, Thomas Rossoni" TITLE "Never Alone (Extended Mix)" INDEX 01 13:04:00 TRACK 04 AUDIO PERFORMER "Quivver" TITLE "That Is Correct" INDEX 01 19:03:00 TRACK 05 AUDIO PERFORMER "D-nox, Gai Barone" TITLE "Sound Of The Wind" INDEX 01 23:29:00 TRACK 06 AUDIO PERFORMER "Deltium" TITLE "Equinox (Original Mix)" INDEX 01 29:20:00 TRACK 07 AUDIO PERFORMER "Morttagua" TITLE "Tesla (Original Mix)" INDEX 01 35:50:00 TRACK 08 AUDIO PERFORMER "ATTLAS" TITLE "Seabreeze" INDEX 01 41:17:00 TRACK 09 AUDIO PERFORMER "Grum" TITLE "The Pledge (Extended Version)" INDEX 01 45:23:00 TRACK 10 AUDIO PERFORMER "Boskii" TITLE "The Final Time" INDEX 01 50:05:00 TRACK 11 AUDIO PERFORMER "Yotto feat Snin and Laudic" TITLE "Hear Me Out" INDEX 01 54:09:00
01 Yotto, Lane 8 - Buggy 00:00 02 Max Freegrant Slow Fish - Elon On Mars (Original Mix) 06:50 03 Copini, Thomas Rossoni - Never Alone (Extended Mix) 13:04 04 Quivver - That Is Correct 19:03 05 D-nox, Gai Barone - Sound Of The Wind 23:29 06 Deltium - Equinox (Original Mix) 29:20 07 Morttagua - Tesla (Original Mix) 35:50 08 ATTLAS - Seabreeze 41:17 09 Grum - The Pledge (Extended Version) 45:23 10 Boskii - The Final Time 50:05 11 Yotto feat Sønin and Laudic - Hear Me Out 54:09
Aerodynamix 078 @ Frisky Radio November 2020 mixed by JuanPdata/95-va-aerodynamix_078_mixed_by_juan_prada_friskyradio-nov2020-500px.pngdata/95-va-aerodynamix_078_mixed_by_juan_prada_friskyradio-nov2020.mp3data/95-va-aerodynamix_078_mixed_by_juan_prada_friskyradio-nov2020.ogg
{"Cuesheet":{"performer":"VA [Mixed by JuanP]","title":"Aerodynamix 078 (November 2020) Frisky Radio","file":"95-va-aerodynamix_078_mixed_by_juan_prada_friskyradio-nov2020.mp3"},"Track":[{"performer":"Yotto, Lane 8","title":"Buggy","index":{"time":"00:00:00","frames":0,"seconds":0,"lenseconds":410,"lentime":"06:50"}},{"performer":"Max Freegrant Slow Fish","title":"Elon On Mars (Original Mix)","index":{"time":"06:50:00","frames":30750,"seconds":410,"lenseconds":374,"lentime":"06:14"}},{"performer":"Copini, Thomas Rossoni","title":"Never Alone (Extended Mix)","index":{"time":"13:04:00","frames":58800,"seconds":784,"lenseconds":359,"lentime":"05:59"}},{"performer":"Quivver","title":"That Is Correct","index":{"time":"19:03:00","frames":85725,"seconds":1143,"lenseconds":266,"lentime":"04:26"}},{"performer":"D-nox, Gai Barone","title":"Sound Of The Wind","index":{"time":"23:29:00","frames":105675,"seconds":1409,"lenseconds":351,"lentime":"05:51"}},{"performer":"Deltium","title":"Equinox (Original Mix)","index":{"time":"29:20:00","frames":132000,"seconds":1760,"lenseconds":390,"lentime":"06:30"}},{"performer":"Morttagua","title":"Tesla (Original Mix)","index":{"time":"35:50:00","frames":161250,"seconds":2150,"lenseconds":327,"lentime":"05:27"}},{"performer":"ATTLAS","title":"Seabreeze","index":{"time":"41:17:00","frames":185775,"seconds":2477,"lenseconds":246,"lentime":"04:06"}},{"performer":"Grum","title":"The Pledge (Extended Version)","index":{"time":"45:23:00","frames":204225,"seconds":2723,"lenseconds":282,"lentime":"04:42"}},{"performer":"Boskii","title":"The Final Time","index":{"time":"50:05:00","frames":225375,"seconds":3005,"lenseconds":244,"lentime":"04:04"}},{"performer":"Yotto feat S\u00f8nin and Laudic","title":"Hear Me Out","index":{"time":"54:09:00","frames":243675,"seconds":3249,"lenseconds":351,"lentime":"05:51"}}]}