Carefully constructed music sets for your aural pleasure
Aerodynamix 077 @ Frisky Radio September 2020 mixed by JuanP
Nu Disco / Progressive House
1:00:00
nu disco, progressive house
SHOW TRACKLIST
SHOW CUESHEET
SHOW TXT PL

LOAD IN AUDIO PLAYER

1
O Mer
Blind
03:01
2
Hayden James
Favours
03:47
3
Svet
Somebody (Juloboy Remix)
04:20
4
Kid Cr?me
Funk Particle
05:28
5
Mason, The Melody Men
Loosen Up
03:07
6
Lookee
That Feeling (Extended Mix)
04:49
7
Goom Gum
It`s A Lot
03:07
8
Tom Keller
Still Care
04:10
9
Boris Dlugosch Cassara
Traveller (Original Mix)
06:04
10
Tinlicker & Run Rivers
Lost (Extended Mix)
06:11
11
Quivver
Long Time (Extended Mix)
05:25
12
Einmusik
Blooming (Original Mix)
06:27
13
ODESZA
A Moment Apart
04:04
PERFORMER "VA [Mixed by JuanP]" TITLE "Aerodynamix 077 (September 2020) Frisky Radio" FILE "94-va-aerodynamix_077_mixed_by_juan_prada_friskyradio-sep2020.mp3" WAVE TRACK 01 AUDIO PERFORMER "O Mer" TITLE "Blind" INDEX 01 00:00:00 TRACK 02 AUDIO PERFORMER "Hayden James" TITLE "Favours" INDEX 01 03:01:00 TRACK 03 AUDIO PERFORMER "Svet" TITLE "Somebody (Juloboy Remix)" INDEX 01 06:48:00 TRACK 04 AUDIO PERFORMER "Kid Cr?me" TITLE "Funk Particle" INDEX 01 11:08:00 TRACK 05 AUDIO PERFORMER "Mason, The Melody Men" TITLE "Loosen Up" INDEX 01 16:36:00 TRACK 06 AUDIO PERFORMER "Lookee" TITLE "That Feeling (Extended Mix)" INDEX 01 19:43:00 TRACK 07 AUDIO PERFORMER "Goom Gum" TITLE "It`s A Lot" INDEX 01 24:32:00 TRACK 08 AUDIO PERFORMER "Tom Keller" TITLE "Still Care" INDEX 01 27:39:00 TRACK 09 AUDIO PERFORMER "Boris Dlugosch Cassara" TITLE "Traveller (Original Mix)" INDEX 01 31:49:00 TRACK 10 AUDIO PERFORMER "Tinlicker & Run Rivers" TITLE "Lost (Extended Mix)" INDEX 01 37:53:00 TRACK 11 AUDIO PERFORMER "Quivver" TITLE "Long Time (Extended Mix)" INDEX 01 44:04:00 TRACK 12 AUDIO PERFORMER "Einmusik" TITLE "Blooming (Original Mix)" INDEX 01 49:29:00 TRACK 13 AUDIO PERFORMER "ODESZA" TITLE "A Moment Apart" INDEX 01 55:56:00
01 O Mer - Blind 00:00 02 Hayden James - Favours 03:01 03 Svet - Somebody (Juloboy Remix) 06:48 04 Kid Cr?me - Funk Particle 11:08 05 Mason, The Melody Men - Loosen Up 16:36 06 Lookee - That Feeling (Extended Mix) 19:43 07 Goom Gum - It`s A Lot 24:32 08 Tom Keller - Still Care 27:39 09 Boris Dlugosch Cassara - Traveller (Original Mix) 31:49 10 Tinlicker & Run Rivers - Lost (Extended Mix) 37:53 11 Quivver - Long Time (Extended Mix) 44:04 12 Einmusik - Blooming (Original Mix) 49:29 13 ODESZA - A Moment Apart 55:56
Aerodynamix 077 @ Frisky Radio September 2020 mixed by JuanPdata/94-va-aerodynamix_077_mixed_by_juan_prada_friskyradio-sep2020-500px.pngdata/94-va-aerodynamix_077_mixed_by_juan_prada_friskyradio-sep2020.mp3data/94-va-aerodynamix_077_mixed_by_juan_prada_friskyradio-sep2020.ogg
{"Cuesheet":{"performer":"VA [Mixed by JuanP]","title":"Aerodynamix 077 (September 2020) Frisky Radio","file":"94-va-aerodynamix_077_mixed_by_juan_prada_friskyradio-sep2020.mp3"},"Track":[{"performer":"O Mer","title":"Blind","index":{"time":"00:00:00","frames":0,"seconds":0,"lenseconds":181,"lentime":"03:01"}},{"performer":"Hayden James","title":"Favours","index":{"time":"03:01:00","frames":13575,"seconds":181,"lenseconds":227,"lentime":"03:47"}},{"performer":"Svet","title":"Somebody (Juloboy Remix)","index":{"time":"06:48:00","frames":30600,"seconds":408,"lenseconds":260,"lentime":"04:20"}},{"performer":"Kid Cr?me","title":"Funk Particle","index":{"time":"11:08:00","frames":50100,"seconds":668,"lenseconds":328,"lentime":"05:28"}},{"performer":"Mason, The Melody Men","title":"Loosen Up","index":{"time":"16:36:00","frames":74700,"seconds":996,"lenseconds":187,"lentime":"03:07"}},{"performer":"Lookee","title":"That Feeling (Extended Mix)","index":{"time":"19:43:00","frames":88725,"seconds":1183,"lenseconds":289,"lentime":"04:49"}},{"performer":"Goom Gum","title":"It`s A Lot","index":{"time":"24:32:00","frames":110400,"seconds":1472,"lenseconds":187,"lentime":"03:07"}},{"performer":"Tom Keller","title":"Still Care","index":{"time":"27:39:00","frames":124425,"seconds":1659,"lenseconds":250,"lentime":"04:10"}},{"performer":"Boris Dlugosch Cassara","title":"Traveller (Original Mix)","index":{"time":"31:49:00","frames":143175,"seconds":1909,"lenseconds":364,"lentime":"06:04"}},{"performer":"Tinlicker & Run Rivers","title":"Lost (Extended Mix)","index":{"time":"37:53:00","frames":170475,"seconds":2273,"lenseconds":371,"lentime":"06:11"}},{"performer":"Quivver","title":"Long Time (Extended Mix)","index":{"time":"44:04:00","frames":198300,"seconds":2644,"lenseconds":325,"lentime":"05:25"}},{"performer":"Einmusik","title":"Blooming (Original Mix)","index":{"time":"49:29:00","frames":222675,"seconds":2969,"lenseconds":387,"lentime":"06:27"}},{"performer":"ODESZA","title":"A Moment Apart","index":{"time":"55:56:00","frames":251700,"seconds":3356,"lenseconds":244,"lentime":"04:04"}}]}