Carefully constructed music sets for your aural pleasure
Aerodynamix 075 @ Frisky Radio May 2020 mixed by JuanP
Progressive House, Melodic Techno
1:00:00
progressive house, melodic techno
SHOW TRACKLIST
SHOW CUESHEET
SHOW TXT PL

LOAD IN AUDIO PLAYER

1
Hunter, Game
Dark Aster
05:29
2
Sebastien Leger
Ashes in the Wind (Original Mix)
08:20
3
Rodriguez Jr.
Blisss
06:07
4
Ivory (IT)
Hold Your Breath (Original Mix)
06:30
5
Tale Of Us
Alone
03:58
6
Underwood
V?locip?de (Integral Bread Remix)
07:17
7
Henry Saiz
The Rider
06:46
8
Joris Voorn
Ryo
05:59
9
Fairmont, Patrice Baumel
Gazebo (Patrice Baumel Remix)
06:30
10
Luka Sambe
Endorphima (Cid Inc. Remix)
03:04
PERFORMER "VA [Mixed by JuanP]" TITLE "Aerodynamix 075 (May 2020) Frisky Radio" FILE "92-va-aerodynamix_075_mixed_by_juan_prada_friskyradio-may2020.mp3" WAVE TRACK 01 AUDIO PERFORMER "Hunter, Game" TITLE "Dark Aster" INDEX 01 00:00:00 TRACK 02 AUDIO PERFORMER "Sebastien Leger" TITLE "Ashes in the Wind (Original Mix)" INDEX 01 05:29:00 TRACK 03 AUDIO PERFORMER "Rodriguez Jr." TITLE "Blisss" INDEX 01 13:49:00 TRACK 04 AUDIO PERFORMER "Ivory (IT)" TITLE "Hold Your Breath (Original Mix)" INDEX 01 19:56:00 TRACK 05 AUDIO PERFORMER "Tale Of Us" TITLE "Alone" INDEX 01 26:26:00 TRACK 06 AUDIO PERFORMER "Underwood" TITLE "Vlocipde (Integral Bread Remix)" INDEX 01 30:24:00 TRACK 07 AUDIO PERFORMER "Henry Saiz" TITLE "The Rider" INDEX 01 37:41:00 TRACK 08 AUDIO PERFORMER "Joris Voorn" TITLE "Ryo" INDEX 01 44:27:00 TRACK 09 AUDIO PERFORMER "Fairmont, Patrice Baumel" TITLE "Gazebo (Patrice Baumel Remix)" INDEX 01 50:26:00 TRACK 10 AUDIO PERFORMER "Luka Sambe" TITLE "Endorphima (Cid Inc. Remix)" INDEX 01 56:56:00
01 Hunter, Game - Dark Aster 00:00 02 Sebastien Leger - Ashes in the Wind (Original Mix) 05:29 03 Rodriguez Jr. - Blisss 13:49 04 Ivory (IT) - Hold Your Breath (Original Mix) 19:56 05 Tale Of Us - Alone 26:26 06 Underwood - V?locip?de (Integral Bread Remix) 30:24 07 Henry Saiz - The Rider 37:41 08 Joris Voorn - Ryo 44:27 09 Fairmont, Patrice Baumel - Gazebo (Patrice Baumel Remix) 50:26 10 Luka Sambe - Endorphima (Cid Inc. Remix) 56:56
Aerodynamix 075 @ Frisky Radio May 2020 mixed by JuanPdata/92-va-aerodynamix_075_mixed_by_juan_prada_friskyradio-may2020-500px.pngdata/92-va-aerodynamix_075_mixed_by_juan_prada_friskyradio-may2020.mp3data/92-va-aerodynamix_075_mixed_by_juan_prada_friskyradio-may2020.ogg
{"Cuesheet":{"performer":"VA [Mixed by JuanP]","title":"Aerodynamix 075 (May 2020) Frisky Radio","file":"92-va-aerodynamix_075_mixed_by_juan_prada_friskyradio-may2020.mp3"},"Track":[{"performer":"Hunter, Game","title":"Dark Aster","index":{"time":"00:00:00","frames":0,"seconds":0,"lenseconds":329,"lentime":"05:29"}},{"performer":"Sebastien Leger","title":"Ashes in the Wind (Original Mix)","index":{"time":"05:29:00","frames":24675,"seconds":329,"lenseconds":500,"lentime":"08:20"}},{"performer":"Rodriguez Jr.","title":"Blisss","index":{"time":"13:49:00","frames":62175,"seconds":829,"lenseconds":367,"lentime":"06:07"}},{"performer":"Ivory (IT)","title":"Hold Your Breath (Original Mix)","index":{"time":"19:56:00","frames":89700,"seconds":1196,"lenseconds":390,"lentime":"06:30"}},{"performer":"Tale Of Us","title":"Alone","index":{"time":"26:26:00","frames":118950,"seconds":1586,"lenseconds":238,"lentime":"03:58"}},{"performer":"Underwood","title":"V?locip?de (Integral Bread Remix)","index":{"time":"30:24:00","frames":136800,"seconds":1824,"lenseconds":437,"lentime":"07:17"}},{"performer":"Henry Saiz","title":"The Rider","index":{"time":"37:41:00","frames":169575,"seconds":2261,"lenseconds":406,"lentime":"06:46"}},{"performer":"Joris Voorn","title":"Ryo","index":{"time":"44:27:00","frames":200025,"seconds":2667,"lenseconds":359,"lentime":"05:59"}},{"performer":"Fairmont, Patrice Baumel","title":"Gazebo (Patrice Baumel Remix)","index":{"time":"50:26:00","frames":226950,"seconds":3026,"lenseconds":390,"lentime":"06:30"}},{"performer":"Luka Sambe","title":"Endorphima (Cid Inc. Remix)","index":{"time":"56:56:00","frames":256200,"seconds":3416,"lenseconds":184,"lentime":"03:04"}}]}