Carefully constructed music sets for your aural pleasure
Aerodynamix 073 @ Frisky Radio January 2020 mixed by JuanP
Progressive House
1:00:00
progressive house
SHOW TRACKLIST
SHOW CUESHEET
SHOW TXT PL

LOAD IN AUDIO PLAYER

1
Joris Voorn
Antigone
06:31
2
ARTBAT
Orbital
06:59
3
Jam & Spoon
Stella (Kölsch Remix Long)
07:41
4
Jackson Snapp
Uncanny Valley (Extended Mix)
04:57
5
D.Ramirez & Mark Knight
Colombian Soul (Grum Remix)
04:34
6
Element 108
1999 (2019 Rework)
05:35
7
Maceo Plex
When the Lights Are Out
06:33
8
LTN
Sleeping At The Airport (Extended Mix)
05:18
9
Lumisade
Orange Theme (Extended Mix)
05:48
10
Talamanca
Escape
06:04
PERFORMER "VA [Mixed by JuanP]" TITLE "Aerodynamix 073 (January 2020) Frisky Radio" FILE "90-va-aerodynamix_073_mixed_by_juan_prada_friskyradio-jan2020.mp3" WAVE TRACK 01 AUDIO PERFORMER "Joris Voorn" TITLE "Antigone" INDEX 01 00:00:00 TRACK 02 AUDIO PERFORMER "ARTBAT" TITLE "Orbital" INDEX 01 06:31:00 TRACK 03 AUDIO PERFORMER "Jam & Spoon" TITLE "Stella (Klsch Remix Long)" INDEX 01 13:30:00 TRACK 04 AUDIO PERFORMER "Jackson Snapp" TITLE "Uncanny Valley (Extended Mix)" INDEX 01 21:11:00 TRACK 05 AUDIO PERFORMER "D.Ramirez & Mark Knight" TITLE "Colombian Soul (Grum Remix)" INDEX 01 26:08:00 TRACK 06 AUDIO PERFORMER "Element 108" TITLE "1999 (2019 Rework)" INDEX 01 30:42:00 TRACK 07 AUDIO PERFORMER "Maceo Plex" TITLE "When the Lights Are Out" INDEX 01 36:17:00 TRACK 08 AUDIO PERFORMER "LTN" TITLE "Sleeping At The Airport (Extended Mix)" INDEX 01 42:50:00 TRACK 09 AUDIO PERFORMER "Lumisade" TITLE "Orange Theme (Extended Mix)" INDEX 01 48:08:00 TRACK 10 AUDIO PERFORMER "Talamanca" TITLE "Escape" INDEX 01 53:56:00
01 Joris Voorn - Antigone 00:00 02 ARTBAT - Orbital 06:31 03 Jam & Spoon - Stella (Kölsch Remix Long) 13:30 04 Jackson Snapp - Uncanny Valley (Extended Mix) 21:11 05 D.Ramirez & Mark Knight - Colombian Soul (Grum Remix) 26:08 06 Element 108 - 1999 (2019 Rework) 30:42 07 Maceo Plex - When the Lights Are Out 36:17 08 LTN - Sleeping At The Airport (Extended Mix) 42:50 09 Lumisade - Orange Theme (Extended Mix) 48:08 10 Talamanca - Escape 53:56
Aerodynamix 073 @ Frisky Radio January 2020 mixed by JuanPdata/90-va-aerodynamix_073_mixed_by_juan_prada_friskyradio-jan2020-500px.pngdata/90-va-aerodynamix_073_mixed_by_juan_prada_friskyradio-jan2020.mp3data/90-va-aerodynamix_073_mixed_by_juan_prada_friskyradio-jan2020.ogg
{"Cuesheet":{"performer":"VA [Mixed by JuanP]","title":"Aerodynamix 073 (January 2020) Frisky Radio","file":"90-va-aerodynamix_073_mixed_by_juan_prada_friskyradio-jan2020.mp3"},"Track":[{"performer":"Joris Voorn","title":"Antigone","index":{"time":"00:00:00","frames":0,"seconds":0,"lenseconds":391,"lentime":"06:31"}},{"performer":"ARTBAT","title":"Orbital","index":{"time":"06:31:00","frames":29325,"seconds":391,"lenseconds":419,"lentime":"06:59"}},{"performer":"Jam & Spoon","title":"Stella (K\u00f6lsch Remix Long)","index":{"time":"13:30:00","frames":60750,"seconds":810,"lenseconds":461,"lentime":"07:41"}},{"performer":"Jackson Snapp","title":"Uncanny Valley (Extended Mix)","index":{"time":"21:11:00","frames":95325,"seconds":1271,"lenseconds":297,"lentime":"04:57"}},{"performer":"D.Ramirez & Mark Knight","title":"Colombian Soul (Grum Remix)","index":{"time":"26:08:00","frames":117600,"seconds":1568,"lenseconds":274,"lentime":"04:34"}},{"performer":"Element 108","title":"1999 (2019 Rework)","index":{"time":"30:42:00","frames":138150,"seconds":1842,"lenseconds":335,"lentime":"05:35"}},{"performer":"Maceo Plex","title":"When the Lights Are Out","index":{"time":"36:17:00","frames":163275,"seconds":2177,"lenseconds":393,"lentime":"06:33"}},{"performer":"LTN","title":"Sleeping At The Airport (Extended Mix)","index":{"time":"42:50:00","frames":192750,"seconds":2570,"lenseconds":318,"lentime":"05:18"}},{"performer":"Lumisade","title":"Orange Theme (Extended Mix)","index":{"time":"48:08:00","frames":216600,"seconds":2888,"lenseconds":348,"lentime":"05:48"}},{"performer":"Talamanca","title":"Escape","index":{"time":"53:56:00","frames":242700,"seconds":3236,"lenseconds":364,"lentime":"06:04"}}]}