Carefully constructed music sets for your aural pleasure
Aerodynamix 069 @ Frisky Radio May 2019 mixed by JuanP
Progressive House Techno
1:00:00
progressive house techno
SHOW TRACKLIST
SHOW CUESHEET
SHOW TXT PL

LOAD IN AUDIO PLAYER

1
Claptone feat Katie Stelmanis
La Esperanza (Patrice Bäumel Remix)
06:31
2
Marco JS
White Cat (Original Mix)
05:09
3
Juan Manuel Padilla
Piano Soul (Original Mix)
06:55
4
Juan Deminicis
Free Energy
04:03
5
ARTBAT
Upperground (Extended)
05:41
6
Pig&Dan
Vangelism (Original Mix)
05:41
7
Dr. Avalance
Computer System (Van Bellen Remix)
08:31
8
Ezequiel Arias & Artfaq
Babel (Original Mix)
06:11
9
Raw District, Fabrice Lig
Lay Your Weapons Down feat. Just Her (Alex Kennon Remix)
04:54
10
Rivet Spinners
Addicted (Original Mix)
06:24
PERFORMER "VA [Mixed by JuanP]" TITLE "Aerodynamix 069 (May 2019) Frisky Radio" FILE "86-va-aerodynamix_069_mixed_by_juan_prada_friskyradio-may2019.mp3" WAVE TRACK 01 AUDIO PERFORMER "Claptone feat Katie Stelmanis" TITLE "La Esperanza (Patrice Bäumel Remix)" INDEX 01 00:00:00 TRACK 02 AUDIO PERFORMER "Marco JS" TITLE "White Cat (Original Mix)" INDEX 01 06:31:00 TRACK 03 AUDIO PERFORMER "Juan Manuel Padilla" TITLE "Piano Soul (Original Mix)" INDEX 01 11:40:00 TRACK 04 AUDIO PERFORMER "Juan Deminicis" TITLE "Free Energy" INDEX 01 18:35:00 TRACK 05 AUDIO PERFORMER "ARTBAT" TITLE "Upperground (Extended)" INDEX 01 22:38:00 TRACK 06 AUDIO PERFORMER "Pig&Dan" TITLE "Vangelism (Original Mix)" INDEX 01 28:19:00 TRACK 07 AUDIO PERFORMER "Dr. Avalance" TITLE "Computer System (Van Bellen Remix)" INDEX 01 34:00:00 TRACK 08 AUDIO PERFORMER "Ezequiel Arias & Artfaq" TITLE "Babel (Original Mix)" INDEX 01 42:31:00 TRACK 09 AUDIO PERFORMER "Raw District, Fabrice Lig" TITLE "Lay Your Weapons Down feat. Just Her (Alex Kennon Remix)" INDEX 01 48:42:00 TRACK 10 AUDIO PERFORMER "Rivet Spinners" TITLE "Addicted (Original Mix)" INDEX 01 53:36:00
01 Claptone feat Katie Stelmanis - La Esperanza (Patrice Bäumel Remix) 00:00 02 Marco JS - White Cat (Original Mix) 06:31 03 Juan Manuel Padilla - Piano Soul (Original Mix) 11:40 04 Juan Deminicis - Free Energy 18:35 05 ARTBAT - Upperground (Extended) 22:38 06 Pig&Dan - Vangelism (Original Mix) 28:19 07 Dr. Avalance - Computer System (Van Bellen Remix) 34:00 08 Ezequiel Arias & Artfaq - Babel (Original Mix) 42:31 09 Raw District, Fabrice Lig - Lay Your Weapons Down feat. Just Her (Alex Kennon Remix) 48:42 10 Rivet Spinners - Addicted (Original Mix) 53:36
Aerodynamix 069 @ Frisky Radio May 2019 mixed by JuanPdata/86-va-aerodynamix_069_mixed_by_juan_prada_friskyradio-may2019-500px.pngdata/86-va-aerodynamix_069_mixed_by_juan_prada_friskyradio-may2019.mp3data/86-va-aerodynamix_069_mixed_by_juan_prada_friskyradio-may2019.ogg
{"Cuesheet":{"performer":"VA [Mixed by JuanP]","title":"Aerodynamix 069 (May 2019) Frisky Radio","file":"86-va-aerodynamix_069_mixed_by_juan_prada_friskyradio-may2019.mp3"},"Track":[{"performer":"Claptone feat Katie Stelmanis","title":"La Esperanza (Patrice B\u00e4umel Remix)","index":{"time":"00:00:00","frames":0,"seconds":0,"lenseconds":391,"lentime":"06:31"}},{"performer":"Marco JS","title":"White Cat (Original Mix)","index":{"time":"06:31:00","frames":29325,"seconds":391,"lenseconds":309,"lentime":"05:09"}},{"performer":"Juan Manuel Padilla","title":"Piano Soul (Original Mix)","index":{"time":"11:40:00","frames":52500,"seconds":700,"lenseconds":415,"lentime":"06:55"}},{"performer":"Juan Deminicis","title":"Free Energy","index":{"time":"18:35:00","frames":83625,"seconds":1115,"lenseconds":243,"lentime":"04:03"}},{"performer":"ARTBAT","title":"Upperground (Extended)","index":{"time":"22:38:00","frames":101850,"seconds":1358,"lenseconds":341,"lentime":"05:41"}},{"performer":"Pig&Dan","title":"Vangelism (Original Mix)","index":{"time":"28:19:00","frames":127425,"seconds":1699,"lenseconds":341,"lentime":"05:41"}},{"performer":"Dr. Avalance","title":"Computer System (Van Bellen Remix)","index":{"time":"34:00:00","frames":153000,"seconds":2040,"lenseconds":511,"lentime":"08:31"}},{"performer":"Ezequiel Arias & Artfaq","title":"Babel (Original Mix)","index":{"time":"42:31:00","frames":191325,"seconds":2551,"lenseconds":371,"lentime":"06:11"}},{"performer":"Raw District, Fabrice Lig","title":"Lay Your Weapons Down feat. Just Her (Alex Kennon Remix)","index":{"time":"48:42:00","frames":219150,"seconds":2922,"lenseconds":294,"lentime":"04:54"}},{"performer":"Rivet Spinners","title":"Addicted (Original Mix)","index":{"time":"53:36:00","frames":241200,"seconds":3216,"lenseconds":384,"lentime":"06:24"}}]}