Carefully constructed music sets for your aural pleasure
Aerodynamix 068 @ Frisky Radio March 2019 mixed by JuanP
Progressive House Dark Melodic
1:00:00
progressive house
SHOW TRACKLIST
SHOW CUESHEET
SHOW TXT PL

LOAD IN AUDIO PLAYER

1
L Doblado
Lie Alone (16 Bit Lolitas Remix)
05:50
2
Monolink
Father Ocean (Ben Bohmer Remix)
06:18
3
Analog Jungs
Particle (Nicolas Rada Remix)
06:49
4
Sebastien Leger
Lanarka
07:36
5
Zoo Brazil feat Philip
Shadows (Zoo Brazil Remix)
06:34
6
Donatello & Arnas D
Waves (Original Mix)
06:45
7
Kamilo Sanclemente & Juan Pablo Torrez
Plannar (Extended Mix)
07:02
8
Several Definitions & Marc DePulse
Sharks (Jerome Isma-Ae & Alastor Remix)
06:30
9
Yotto
Walls (Joris Voorn Extended Mix)
06:36
PERFORMER "VA [Mixed by JuanP]" TITLE "Aerodynamix 068 (March 2019) Frisky Radio" FILE "85-va-aerodynamix_068_mixed_by_juan_prada_friskyradio-mar2019.mp3" WAVE TRACK 01 AUDIO PERFORMER "L Doblado" TITLE "Lie Alone (16 Bit Lolitas Remix)" INDEX 01 00:00:00 TRACK 02 AUDIO PERFORMER "Monolink" TITLE "Father Ocean (Ben Bohmer Remix)" INDEX 01 05:50:00 TRACK 03 AUDIO PERFORMER "Analog Jungs" TITLE "Particle (Nicolas Rada Remix)" INDEX 01 12:08:00 TRACK 04 AUDIO PERFORMER "Sebastien Leger" TITLE "Lanarka" INDEX 01 18:57:00 TRACK 05 AUDIO PERFORMER "Zoo Brazil feat Philip" TITLE "Shadows (Zoo Brazil Remix)" INDEX 01 26:33:00 TRACK 06 AUDIO PERFORMER "Donatello & Arnas D" TITLE "Waves (Original Mix)" INDEX 01 33:07:00 TRACK 07 AUDIO PERFORMER "Kamilo Sanclemente & Juan Pablo Torrez" TITLE "Plannar (Extended Mix)" INDEX 01 39:52:00 TRACK 08 AUDIO PERFORMER "Several Definitions & Marc DePulse" TITLE "Sharks (Jerome Isma-Ae & Alastor Remix)" INDEX 01 46:54:00 TRACK 09 AUDIO PERFORMER "Yotto" TITLE "Walls (Joris Voorn Extended Mix)" INDEX 01 53:24:00
01 L Doblado - Lie Alone (16 Bit Lolitas Remix) 00:00 02 Monolink - Father Ocean (Ben Bohmer Remix) 05:50 03 Analog Jungs - Particle (Nicolas Rada Remix) 12:08 04 Sebastien Leger - Lanarka 18:57 05 Zoo Brazil feat Philip - Shadows (Zoo Brazil Remix) 26:33 06 Donatello & Arnas D - Waves (Original Mix) 33:07 07 Kamilo Sanclemente & Juan Pablo Torrez - Plannar (Extended Mix) 39:52 08 Several Definitions & Marc DePulse - Sharks (Jerome Isma-Ae & Alastor Remix) 46:54 09 Yotto - Walls (Joris Voorn Extended Mix) 53:24
Aerodynamix 068 @ Frisky Radio March 2019 mixed by JuanPdata/85-va-aerodynamix_068_mixed_by_juan_prada_friskyradio-mar2019-500px.pngdata/85-va-aerodynamix_068_mixed_by_juan_prada_friskyradio-mar2019.mp3data/85-va-aerodynamix_068_mixed_by_juan_prada_friskyradio-mar2019.ogg
{"Cuesheet":{"performer":"VA [Mixed by JuanP]","title":"Aerodynamix 068 (March 2019) Frisky Radio","file":"85-va-aerodynamix_068_mixed_by_juan_prada_friskyradio-mar2019.mp3"},"Track":[{"performer":"L Doblado","title":"Lie Alone (16 Bit Lolitas Remix)","index":{"time":"00:00:00","frames":0,"seconds":0,"lenseconds":350,"lentime":"05:50"}},{"performer":"Monolink","title":"Father Ocean (Ben Bohmer Remix)","index":{"time":"05:50:00","frames":26250,"seconds":350,"lenseconds":378,"lentime":"06:18"}},{"performer":"Analog Jungs","title":"Particle (Nicolas Rada Remix)","index":{"time":"12:08:00","frames":54600,"seconds":728,"lenseconds":409,"lentime":"06:49"}},{"performer":"Sebastien Leger","title":"Lanarka","index":{"time":"18:57:00","frames":85275,"seconds":1137,"lenseconds":456,"lentime":"07:36"}},{"performer":"Zoo Brazil feat Philip","title":"Shadows (Zoo Brazil Remix)","index":{"time":"26:33:00","frames":119475,"seconds":1593,"lenseconds":394,"lentime":"06:34"}},{"performer":"Donatello & Arnas D","title":"Waves (Original Mix)","index":{"time":"33:07:00","frames":149025,"seconds":1987,"lenseconds":405,"lentime":"06:45"}},{"performer":"Kamilo Sanclemente & Juan Pablo Torrez","title":"Plannar (Extended Mix)","index":{"time":"39:52:00","frames":179400,"seconds":2392,"lenseconds":422,"lentime":"07:02"}},{"performer":"Several Definitions & Marc DePulse","title":"Sharks (Jerome Isma-Ae & Alastor Remix)","index":{"time":"46:54:00","frames":211050,"seconds":2814,"lenseconds":390,"lentime":"06:30"}},{"performer":"Yotto","title":"Walls (Joris Voorn Extended Mix)","index":{"time":"53:24:00","frames":240300,"seconds":3204,"lenseconds":396,"lentime":"06:36"}}]}