Carefully constructed music sets for your aural pleasure
Aerodynamix 067 @ Frisky Radio January 2019 mixed by JuanP
House / Deep / Prog
1:00:00
house, deep house, progressive house, techno
SHOW TRACKLIST
SHOW CUESHEET
SHOW TXT PL

LOAD IN AUDIO PLAYER

1
Stella, NTEIBINT
A State Nearby (Extended Mix)
06:32
2
Yuksek & Bertrand Burgalat
Icare (Yuksek Remix)
03:02
3
Benjamin Frohlich
Dream City (Zombies in Miami Remix)
07:21
4
ARTBAT
Atlas (Original Mix)
04:45
5
Nick Muir
Mirror (Walk Khen Remix)
05:30
6
Dapayk Solo
Daydreaming (Original Mix)
05:15
7
Stereocalypse
Blue Dome Escargot (Original Mix)
04:43
8
Petar Dundov, Marc Romboy
Garden of Cyrus (Original Mix)
07:48
9
Undercatt
Britannia
05:40
10
Antrim
Confused (Original Mix)
06:12
11
Rufus
Simplicity Of Bliss
03:12
PERFORMER "VA [Mixed by JuanP]" TITLE "Aerodynamix 067 (January 2019) Frisky Radio" FILE "84-va-aerodynamix_067_mixed_by_juan_prada_friskyradio-jan2019.mp3" WAVE TRACK 01 AUDIO PERFORMER "Stella, NTEIBINT" TITLE "A State Nearby (Extended Mix)" INDEX 01 00:00:00 TRACK 02 AUDIO PERFORMER "Yuksek & Bertrand Burgalat" TITLE "Icare (Yuksek Remix)" INDEX 01 06:32:00 TRACK 03 AUDIO PERFORMER "Benjamin Frohlich" TITLE "Dream City (Zombies in Miami Remix)" INDEX 01 09:34:00 TRACK 04 AUDIO PERFORMER "ARTBAT" TITLE "Atlas (Original Mix)" INDEX 01 16:55:00 TRACK 05 AUDIO PERFORMER "Nick Muir" TITLE "Mirror (Walk Khen Remix)" INDEX 01 21:40:00 TRACK 06 AUDIO PERFORMER "Dapayk Solo" TITLE "Daydreaming (Original Mix)" INDEX 01 27:10:00 TRACK 07 AUDIO PERFORMER "Stereocalypse" TITLE "Blue Dome Escargot (Original Mix)" INDEX 01 32:25:00 TRACK 08 AUDIO PERFORMER "Petar Dundov, Marc Romboy" TITLE "Garden of Cyrus (Original Mix)" INDEX 01 37:08:00 TRACK 09 AUDIO PERFORMER "Undercatt" TITLE "Britannia" INDEX 01 44:56:00 TRACK 10 AUDIO PERFORMER "Antrim" TITLE "Confused (Original Mix)" INDEX 01 50:36:00 TRACK 11 AUDIO PERFORMER "Rufus" TITLE "Simplicity Of Bliss" INDEX 01 56:48:00
01 Stella, NTEIBINT - A State Nearby (Extended Mix) 00:00 02 Yuksek & Bertrand Burgalat - Icare (Yuksek Remix) 06:32 03 Benjamin Frohlich - Dream City (Zombies in Miami Remix) 09:34 04 ARTBAT - Atlas (Original Mix) 16:55 05 Nick Muir - Mirror (Walk Khen Remix) 21:40 06 Dapayk Solo - Daydreaming (Original Mix) 27:10 07 Stereocalypse - Blue Dome Escargot (Original Mix) 32:25 08 Petar Dundov, Marc Romboy - Garden of Cyrus (Original Mix) 37:08 09 Undercatt - Britannia 44:56 10 Antrim - Confused (Original Mix) 50:36 11 Rufus - Simplicity Of Bliss 56:48
Aerodynamix 067 @ Frisky Radio January 2019 mixed by JuanPdata/84-va-aerodynamix_067_mixed_by_juan_prada_friskyradio-jan2019-500px.pngdata/84-va-aerodynamix_067_mixed_by_juan_prada_friskyradio-jan2019.mp3data/84-va-aerodynamix_067_mixed_by_juan_prada_friskyradio-jan2019.ogg
{"Cuesheet":{"performer":"VA [Mixed by JuanP]","title":"Aerodynamix 067 (January 2019) Frisky Radio","file":"84-va-aerodynamix_067_mixed_by_juan_prada_friskyradio-jan2019.mp3"},"Track":[{"performer":"Stella, NTEIBINT","title":"A State Nearby (Extended Mix)","index":{"time":"00:00:00","frames":0,"seconds":0,"lenseconds":392,"lentime":"06:32"}},{"performer":"Yuksek & Bertrand Burgalat","title":"Icare (Yuksek Remix)","index":{"time":"06:32:00","frames":29400,"seconds":392,"lenseconds":182,"lentime":"03:02"}},{"performer":"Benjamin Frohlich","title":"Dream City (Zombies in Miami Remix)","index":{"time":"09:34:00","frames":43050,"seconds":574,"lenseconds":441,"lentime":"07:21"}},{"performer":"ARTBAT","title":"Atlas (Original Mix)","index":{"time":"16:55:00","frames":76125,"seconds":1015,"lenseconds":285,"lentime":"04:45"}},{"performer":"Nick Muir","title":"Mirror (Walk Khen Remix)","index":{"time":"21:40:00","frames":97500,"seconds":1300,"lenseconds":330,"lentime":"05:30"}},{"performer":"Dapayk Solo","title":"Daydreaming (Original Mix)","index":{"time":"27:10:00","frames":122250,"seconds":1630,"lenseconds":315,"lentime":"05:15"}},{"performer":"Stereocalypse","title":"Blue Dome Escargot (Original Mix)","index":{"time":"32:25:00","frames":145875,"seconds":1945,"lenseconds":283,"lentime":"04:43"}},{"performer":"Petar Dundov, Marc Romboy","title":"Garden of Cyrus (Original Mix)","index":{"time":"37:08:00","frames":167100,"seconds":2228,"lenseconds":468,"lentime":"07:48"}},{"performer":"Undercatt","title":"Britannia","index":{"time":"44:56:00","frames":202200,"seconds":2696,"lenseconds":340,"lentime":"05:40"}},{"performer":"Antrim","title":"Confused (Original Mix)","index":{"time":"50:36:00","frames":227700,"seconds":3036,"lenseconds":372,"lentime":"06:12"}},{"performer":"Rufus","title":"Simplicity Of Bliss","index":{"time":"56:48:00","frames":255600,"seconds":3408,"lenseconds":192,"lentime":"03:12"}}]}