Carefully constructed music sets for your aural pleasure
Aerodynamix 065 @ Frisky Radio September 2018 mixed by JuanP
Progressive House, Melodic House
1:00:00
progressive house melodic
SHOW TRACKLIST
SHOW CUESHEET
SHOW TXT PL

LOAD IN AUDIO PLAYER

1
Alex Metric, Ten Ven
Plates
04:54
2
VovaWave
Soulmate (Original Mix)
05:03
3
Alive
Pompei (Original Mix)
05:59
4
Henry Saiz & Band
Me Llama Una Voz (Hernan Cattaneo & Audio Junkies Remix)
05:59
5
Kamilo Sanclemente
Homeward (Original Mix)
07:17
6
Jan Blomqvist
The Space In Between
06:15
7
Ezequiel Arias
Airwave (Original Mix)
06:45
8
Matter
The Bends (Extended Mix)
07:57
9
Valleraphon
Searching For El (Original Mix)
06:22
10
Armin Van Buuren
Another You (feat. Mr. Probz) (Gundamea Remix)
03:29
PERFORMER "VA [Mixed by JuanP]" TITLE "Aerodynamix 065 (September 2018) Frisky Radio" FILE "82-va-aerodynamix_065_mixed_by_juan_prada_friskyradio-sep2018.mp3" WAVE TRACK 01 AUDIO PERFORMER "Alex Metric, Ten Ven" TITLE "Plates" INDEX 01 00:00:00 TRACK 02 AUDIO PERFORMER "VovaWave" TITLE "Soulmate (Original Mix)" INDEX 01 04:54:00 TRACK 03 AUDIO PERFORMER "Alive" TITLE "Pompei (Original Mix)" INDEX 01 09:57:00 TRACK 04 AUDIO PERFORMER "Henry Saiz & Band" TITLE "Me Llama Una Voz (Hernan Cattaneo & Audio Junkies Remix)" INDEX 01 15:56:00 TRACK 05 AUDIO PERFORMER "Kamilo Sanclemente" TITLE "Homeward (Original Mix)" INDEX 01 21:55:00 TRACK 06 AUDIO PERFORMER "Jan Blomqvist" TITLE "The Space In Between" INDEX 01 29:12:00 TRACK 07 AUDIO PERFORMER "Ezequiel Arias" TITLE "Airwave (Original Mix)" INDEX 01 35:27:00 TRACK 08 AUDIO PERFORMER "Matter" TITLE "The Bends (Extended Mix)" INDEX 01 42:12:30 TRACK 09 AUDIO PERFORMER "Valleraphon" TITLE "Searching For El (Original Mix)" INDEX 01 50:09:00 TRACK 10 AUDIO PERFORMER "Armin Van Buuren" TITLE "Another You (feat. Mr. Probz) (Gundamea Remix)" INDEX 01 56:31:00
01 Alex Metric, Ten Ven - Plates 00:00 02 VovaWave - Soulmate (Original Mix) 04:54 03 Alive - Pompei (Original Mix) 09:57 04 Henry Saiz & Band - Me Llama Una Voz (Hernan Cattaneo & Audio Junkies Remix) 15:56 05 Kamilo Sanclemente - Homeward (Original Mix) 21:55 06 Jan Blomqvist - The Space In Between 29:12 07 Ezequiel Arias - Airwave (Original Mix) 35:27 08 Matter - The Bends (Extended Mix) 42:12 09 Valleraphon - Searching For El (Original Mix) 50:09 10 Armin Van Buuren - Another You (feat. Mr. Probz) (Gundamea Remix) 56:31
Aerodynamix 065 @ Frisky Radio September 2018 mixed by JuanPdata/82-va-aerodynamix_065_mixed_by_juan_prada_friskyradio-sep2018-500px.pngdata/82-va-aerodynamix_065_mixed_by_juan_prada_friskyradio-sep2018.mp3data/82-va-aerodynamix_065_mixed_by_juan_prada_friskyradio-sep2018.ogg
{"Cuesheet":{"performer":"VA [Mixed by JuanP]","title":"Aerodynamix 065 (September 2018) Frisky Radio","file":"82-va-aerodynamix_065_mixed_by_juan_prada_friskyradio-sep2018.mp3"},"Track":[{"performer":"Alex Metric, Ten Ven","title":"Plates","index":{"time":"00:00:00","frames":0,"seconds":0,"lenseconds":294,"lentime":"04:54"}},{"performer":"VovaWave","title":"Soulmate (Original Mix)","index":{"time":"04:54:00","frames":22050,"seconds":294,"lenseconds":303,"lentime":"05:03"}},{"performer":"Alive","title":"Pompei (Original Mix)","index":{"time":"09:57:00","frames":44775,"seconds":597,"lenseconds":359,"lentime":"05:59"}},{"performer":"Henry Saiz & Band","title":"Me Llama Una Voz (Hernan Cattaneo & Audio Junkies Remix)","index":{"time":"15:56:00","frames":71700,"seconds":956,"lenseconds":359,"lentime":"05:59"}},{"performer":"Kamilo Sanclemente","title":"Homeward (Original Mix)","index":{"time":"21:55:00","frames":98625,"seconds":1315,"lenseconds":437,"lentime":"07:17"}},{"performer":"Jan Blomqvist","title":"The Space In Between","index":{"time":"29:12:00","frames":131400,"seconds":1752,"lenseconds":375,"lentime":"06:15"}},{"performer":"Ezequiel Arias","title":"Airwave (Original Mix)","index":{"time":"35:27:00","frames":159525,"seconds":2127,"lenseconds":405,"lentime":"06:45"}},{"performer":"Matter","title":"The Bends (Extended Mix)","index":{"time":"42:12:30","frames":189930,"seconds":2532,"lenseconds":477,"lentime":"07:57"}},{"performer":"Valleraphon","title":"Searching For El (Original Mix)","index":{"time":"50:09:00","frames":225675,"seconds":3009,"lenseconds":382,"lentime":"06:22"}},{"performer":"Armin Van Buuren","title":"Another You (feat. Mr. Probz) (Gundamea Remix)","index":{"time":"56:31:00","frames":254325,"seconds":3391,"lenseconds":209,"lentime":"03:29"}}]}