Carefully constructed music sets for your aural pleasure
Aerodynamix 063 @ Frisky Radio May 2018 mixed by JuanP
Nu Disco / Progressive House
1:00:00
nu disco, progressive house
SHOW TRACKLIST
SHOW CUESHEET
SHOW TXT PL

LOAD IN AUDIO PLAYER

1
Henry Saiz & Band
Haven (Lanzarote, Canary Islands)
07:11
2
LTN
Serene Land (Original Mix)
03:53
3
Asadinho
When It Falls
04:53
4
Satin Jackets feat. Scavenger Hunt
Feel Good (Cavego Extended Remix)
04:52
5
Approaching Black
Want You (Original Mix)
04:43
6
Tez Cadey
Oregon
04:18
7
Rone
Parade (Dominik Eulberg Remix Extended)
07:59
8
GMJ
Push Through (Andrea Cassino Remix)
06:39
9
Madloch
Fiction (Martin Roth Remix)
05:36
10
Straight Up
Memories (Extended Mix)
03:42
11
D-Nox & Beckers
I Will Rise (Guy J Remix)
06:14
PERFORMER "VA [Mixed by JuanP]" TITLE "Aerodynamix 063 (May 2018) Frisky Radio" FILE "80-va-aerodynamix_063_mixed_by_juan_prada_friskyradio-may2018.mp3" WAVE TRACK 01 AUDIO PERFORMER "Henry Saiz & Band" TITLE "Haven (Lanzarote, Canary Islands)" INDEX 01 00:00:00 TRACK 02 AUDIO PERFORMER "LTN" TITLE "Serene Land (Original Mix)" INDEX 01 07:11:00 TRACK 03 AUDIO PERFORMER "Asadinho" TITLE "When It Falls" INDEX 01 11:04:00 TRACK 04 AUDIO PERFORMER "Satin Jackets feat. Scavenger Hunt" TITLE "Feel Good (Cavego Extended Remix)" INDEX 01 15:57:00 TRACK 05 AUDIO PERFORMER "Approaching Black" TITLE "Want You (Original Mix)" INDEX 01 20:49:00 TRACK 06 AUDIO PERFORMER "Tez Cadey" TITLE "Oregon" INDEX 01 25:32:00 TRACK 07 AUDIO PERFORMER "Rone" TITLE "Parade (Dominik Eulberg Remix Extended)" INDEX 01 29:50:00 TRACK 08 AUDIO PERFORMER "GMJ" TITLE "Push Through (Andrea Cassino Remix)" INDEX 01 37:49:00 TRACK 09 AUDIO PERFORMER "Madloch" TITLE "Fiction (Martin Roth Remix)" INDEX 01 44:28:00 TRACK 10 AUDIO PERFORMER "Straight Up" TITLE "Memories (Extended Mix)" INDEX 01 50:04:00 TRACK 11 AUDIO PERFORMER "D-Nox & Beckers" TITLE "I Will Rise (Guy J Remix)" INDEX 01 53:46:00
01 Henry Saiz & Band - Haven (Lanzarote, Canary Islands) 00:00 02 LTN - Serene Land (Original Mix) 07:11 03 Asadinho - When It Falls 11:04 04 Satin Jackets feat. Scavenger Hunt - Feel Good (Cavego Extended Remix) 15:57 05 Approaching Black - Want You (Original Mix) 20:49 06 Tez Cadey - Oregon 25:32 07 Rone - Parade (Dominik Eulberg Remix Extended) 29:50 08 GMJ - Push Through (Andrea Cassino Remix) 37:49 09 Madloch - Fiction (Martin Roth Remix) 44:28 10 Straight Up - Memories (Extended Mix) 50:04 11 D-Nox & Beckers - I Will Rise (Guy J Remix) 53:46
Aerodynamix 063 @ Frisky Radio May 2018 mixed by JuanPdata/80-va-aerodynamix_063_mixed_by_juan_prada_friskyradio-may2018-500px.pngdata/80-va-aerodynamix_063_mixed_by_juan_prada_friskyradio-may2018.mp3data/80-va-aerodynamix_063_mixed_by_juan_prada_friskyradio-may2018.ogg
{"Cuesheet":{"performer":"VA [Mixed by JuanP]","title":"Aerodynamix 063 (May 2018) Frisky Radio","file":"80-va-aerodynamix_063_mixed_by_juan_prada_friskyradio-may2018.mp3"},"Track":[{"performer":"Henry Saiz & Band","title":"Haven (Lanzarote, Canary Islands)","index":{"time":"00:00:00","frames":0,"seconds":0,"lenseconds":431,"lentime":"07:11"}},{"performer":"LTN","title":"Serene Land (Original Mix)","index":{"time":"07:11:00","frames":32325,"seconds":431,"lenseconds":233,"lentime":"03:53"}},{"performer":"Asadinho","title":"When It Falls","index":{"time":"11:04:00","frames":49800,"seconds":664,"lenseconds":293,"lentime":"04:53"}},{"performer":"Satin Jackets feat. Scavenger Hunt","title":"Feel Good (Cavego Extended Remix)","index":{"time":"15:57:00","frames":71775,"seconds":957,"lenseconds":292,"lentime":"04:52"}},{"performer":"Approaching Black","title":"Want You (Original Mix)","index":{"time":"20:49:00","frames":93675,"seconds":1249,"lenseconds":283,"lentime":"04:43"}},{"performer":"Tez Cadey","title":"Oregon","index":{"time":"25:32:00","frames":114900,"seconds":1532,"lenseconds":258,"lentime":"04:18"}},{"performer":"Rone","title":"Parade (Dominik Eulberg Remix Extended)","index":{"time":"29:50:00","frames":134250,"seconds":1790,"lenseconds":479,"lentime":"07:59"}},{"performer":"GMJ","title":"Push Through (Andrea Cassino Remix)","index":{"time":"37:49:00","frames":170175,"seconds":2269,"lenseconds":399,"lentime":"06:39"}},{"performer":"Madloch","title":"Fiction (Martin Roth Remix)","index":{"time":"44:28:00","frames":200100,"seconds":2668,"lenseconds":336,"lentime":"05:36"}},{"performer":"Straight Up","title":"Memories (Extended Mix)","index":{"time":"50:04:00","frames":225300,"seconds":3004,"lenseconds":222,"lentime":"03:42"}},{"performer":"D-Nox & Beckers","title":"I Will Rise (Guy J Remix)","index":{"time":"53:46:00","frames":241950,"seconds":3226,"lenseconds":374,"lentime":"06:14"}}]}