Carefully constructed music sets for your aural pleasure
Aerodynamix 060 @ Frisky Radio December 2017 mixed by JuanP
Progressive House
1:00:00
progressive house
SHOW TRACKLIST
SHOW CUESHEET
SHOW TXT PL

LOAD IN AUDIO PLAYER

1
THBD
Ocean
03:50
2
Missus
Reality Before Us
05:49
3
Chicola
Yoav (Original Mix)
06:05
4
Dustin Nantais
Apathy (Original Mix)
05:33
5
Eelke Kleijn feat Therese
Shed my skin
07:49
6
Gabriel And Dresden Ft. Sub Teal
White Walls (Extended Mix)
03:59
7
Jab Vix
Here For Me (Gux Jimenez Remix)
06:01
8
Zed White feat Roald Hughes
Precious (Original Mix)
06:45
9
Suffused & Advent s Rising
Stressed Out
04:49
10
Talamanca
Meditation (Deep Mix)
03:39
11
Dofamine
Metropoliten (Altek Remix)
05:41
PERFORMER "VA [Mixed by JuanP]" TITLE "Aerodynamix 060 (December 2017) Frisky Radio" FILE "77-va-aerodynamix_060_mixed_by_juan_prada_friskyradio-dec2017.mp3" WAVE TRACK 01 AUDIO PERFORMER "THBD" TITLE "Ocean" INDEX 01 00:00:00 TRACK 02 AUDIO PERFORMER "Missus" TITLE "Reality Before Us" INDEX 01 03:50:00 TRACK 03 AUDIO PERFORMER "Chicola" TITLE "Yoav (Original Mix)" INDEX 01 09:39:00 TRACK 04 AUDIO PERFORMER "Dustin Nantais" TITLE "Apathy (Original Mix)" INDEX 01 15:44:00 TRACK 05 AUDIO PERFORMER "Eelke Kleijn feat Therese" TITLE "Shed my skin" INDEX 01 21:17:00 TRACK 06 AUDIO PERFORMER "Gabriel And Dresden Ft. Sub Teal" TITLE "White Walls (Extended Mix)" INDEX 01 29:06:00 TRACK 07 AUDIO PERFORMER "Jab Vix" TITLE "Here For Me (Gux Jimenez Remix)" INDEX 01 33:05:00 TRACK 08 AUDIO PERFORMER "Zed White feat Roald Hughes" TITLE "Precious (Original Mix)" INDEX 01 39:06:00 TRACK 09 AUDIO PERFORMER "Suffused & Advent s Rising" TITLE "Stressed Out" INDEX 01 45:51:00 TRACK 10 AUDIO PERFORMER "Talamanca" TITLE "Meditation (Deep Mix)" INDEX 01 50:40:00 TRACK 11 AUDIO PERFORMER "Dofamine" TITLE "Metropoliten (Altek Remix)" INDEX 01 54:19:00
01 THBD - Ocean 00:00 02 Missus - Reality Before Us 03:50 03 Chicola - Yoav (Original Mix) 09:39 04 Dustin Nantais - Apathy (Original Mix) 15:44 05 Eelke Kleijn feat Therese - Shed my skin 21:17 06 Gabriel And Dresden Ft. Sub Teal - White Walls (Extended Mix) 29:06 07 Jab Vix - Here For Me (Gux Jimenez Remix) 33:05 08 Zed White feat Roald Hughes - Precious (Original Mix) 39:06 09 Suffused & Advent s Rising - Stressed Out 45:51 10 Talamanca - Meditation (Deep Mix) 50:40 11 Dofamine - Metropoliten (Altek Remix) 54:19
Aerodynamix 060 @ Frisky Radio December 2017 mixed by JuanPdata/77-va-aerodynamix_060_mixed_by_juan_prada_friskyradio-dec2017-500px.pngdata/77-va-aerodynamix_060_mixed_by_juan_prada_friskyradio-dec2017.mp3data/77-va-aerodynamix_060_mixed_by_juan_prada_friskyradio-dec2017.ogg
{"Cuesheet":{"performer":"VA [Mixed by JuanP]","title":"Aerodynamix 060 (December 2017) Frisky Radio","file":"77-va-aerodynamix_060_mixed_by_juan_prada_friskyradio-dec2017.mp3"},"Track":[{"performer":"THBD","title":"Ocean","index":{"time":"00:00:00","frames":0,"seconds":0,"lenseconds":230,"lentime":"03:50"}},{"performer":"Missus","title":"Reality Before Us","index":{"time":"03:50:00","frames":17250,"seconds":230,"lenseconds":349,"lentime":"05:49"}},{"performer":"Chicola","title":"Yoav (Original Mix)","index":{"time":"09:39:00","frames":43425,"seconds":579,"lenseconds":365,"lentime":"06:05"}},{"performer":"Dustin Nantais","title":"Apathy (Original Mix)","index":{"time":"15:44:00","frames":70800,"seconds":944,"lenseconds":333,"lentime":"05:33"}},{"performer":"Eelke Kleijn feat Therese","title":"Shed my skin","index":{"time":"21:17:00","frames":95775,"seconds":1277,"lenseconds":469,"lentime":"07:49"}},{"performer":"Gabriel And Dresden Ft. Sub Teal","title":"White Walls (Extended Mix)","index":{"time":"29:06:00","frames":130950,"seconds":1746,"lenseconds":239,"lentime":"03:59"}},{"performer":"Jab Vix","title":"Here For Me (Gux Jimenez Remix)","index":{"time":"33:05:00","frames":148875,"seconds":1985,"lenseconds":361,"lentime":"06:01"}},{"performer":"Zed White feat Roald Hughes","title":"Precious (Original Mix)","index":{"time":"39:06:00","frames":175950,"seconds":2346,"lenseconds":405,"lentime":"06:45"}},{"performer":"Suffused & Advent s Rising","title":"Stressed Out","index":{"time":"45:51:00","frames":206325,"seconds":2751,"lenseconds":289,"lentime":"04:49"}},{"performer":"Talamanca","title":"Meditation (Deep Mix)","index":{"time":"50:40:00","frames":228000,"seconds":3040,"lenseconds":219,"lentime":"03:39"}},{"performer":"Dofamine","title":"Metropoliten (Altek Remix)","index":{"time":"54:19:00","frames":244425,"seconds":3259,"lenseconds":341,"lentime":"05:41"}}]}