Carefully constructed music sets for your aural pleasure
Aerodynamix 059 @ Frisky Radio November 2017 mixed by JuanP
Progressive House / Progressive Trance
1:00:00
progressive house, progressive trance
SHOW TRACKLIST
SHOW CUESHEET
SHOW TXT PL

LOAD IN AUDIO PLAYER

1
Talamanca
Walking the World (Original Mix)
05:51
2
Vadim Spark Cari
Beat Of My Heart (LTN Sunrise Extended Remix)
04:21
3
Dashanikon
Somebody Like You (LTN Sunrise Dub Remix)
03:35
4
Spencer Brown
Vernal (Original Mix)
04:41
5
The Midnight
WeMoveForward (Talamanca Remix)
06:24
6
Mastrovita
Invsbl Dreams (Extended Mix)
03:23
7
Pete K
Solace
04:45
8
Farius
Echo Chamber (Original Mix)
04:32
9
Steve Brian, Pete Severano
Merle (Extended Mix)
07:19
10
Aly & Fila, Paul Thomas
UV (Extended Mix)
04:33
11
Chris Bekker
Episodes (Extended Mix)
05:00
12
Jerome IsmaAe & Alastor
Floyd (Extended Mix)
05:36
PERFORMER "VA [Mixed by JuanP]" TITLE "Aerodynamix 059 (November 2017) Frisky Radio" FILE "76-va-aerodynamix_059_mixed_by_juan_prada_friskyradio-nov2017.mp3" WAVE TRACK 01 AUDIO PERFORMER "Talamanca" TITLE "Walking the World (Original Mix)" INDEX 01 00:00:00 TRACK 02 AUDIO PERFORMER "Vadim Spark Cari" TITLE "Beat Of My Heart (LTN Sunrise Extended Remix)" INDEX 01 05:51:00 TRACK 03 AUDIO PERFORMER "Dashanikon" TITLE "Somebody Like You (LTN Sunrise Dub Remix)" INDEX 01 10:12:00 TRACK 04 AUDIO PERFORMER "Spencer Brown" TITLE "Vernal (Original Mix)" INDEX 01 13:47:00 TRACK 05 AUDIO PERFORMER "The Midnight" TITLE "WeMoveForward (Talamanca Remix)" INDEX 01 18:28:00 TRACK 06 AUDIO PERFORMER "Mastrovita" TITLE "Invsbl Dreams (Extended Mix)" INDEX 01 24:52:00 TRACK 07 AUDIO PERFORMER "Pete K" TITLE "Solace" INDEX 01 28:15:00 TRACK 08 AUDIO PERFORMER "Farius" TITLE "Echo Chamber (Original Mix)" INDEX 01 33:00:00 TRACK 09 AUDIO PERFORMER "Steve Brian, Pete Severano" TITLE "Merle (Extended Mix)" INDEX 01 37:32:00 TRACK 10 AUDIO PERFORMER "Aly & Fila, Paul Thomas" TITLE "UV (Extended Mix)" INDEX 01 44:51:00 TRACK 11 AUDIO PERFORMER "Chris Bekker" TITLE "Episodes (Extended Mix)" INDEX 01 49:24:00 TRACK 12 AUDIO PERFORMER "Jerome IsmaAe & Alastor" TITLE "Floyd (Extended Mix)" INDEX 01 54:24:00
01 Talamanca - Walking the World (Original Mix) 00:00 02 Vadim Spark Cari - Beat Of My Heart (LTN Sunrise Extended Remix) 05:51 03 Dashanikon - Somebody Like You (LTN Sunrise Dub Remix) 10:12 04 Spencer Brown - Vernal (Original Mix) 13:47 05 The Midnight - WeMoveForward (Talamanca Remix) 18:28 06 Mastrovita - Invsbl Dreams (Extended Mix) 24:52 07 Pete K - Solace 28:15 08 Farius - Echo Chamber (Original Mix) 33:00 09 Steve Brian, Pete Severano - Merle (Extended Mix) 37:32 10 Aly & Fila, Paul Thomas - UV (Extended Mix) 44:51 11 Chris Bekker - Episodes (Extended Mix) 49:24 12 Jerome IsmaAe & Alastor - Floyd (Extended Mix) 54:24
Aerodynamix 059 @ Frisky Radio November 2017 mixed by JuanPdata/76-va-aerodynamix_059_mixed_by_juan_prada_friskyradio-nov2017-500px.pngdata/76-va-aerodynamix_059_mixed_by_juan_prada_friskyradio-nov2017.mp3data/76-va-aerodynamix_059_mixed_by_juan_prada_friskyradio-nov2017.ogg
{"Cuesheet":{"performer":"VA [Mixed by JuanP]","title":"Aerodynamix 059 (November 2017) Frisky Radio","file":"76-va-aerodynamix_059_mixed_by_juan_prada_friskyradio-nov2017.mp3"},"Track":[{"performer":"Talamanca","title":"Walking the World (Original Mix)","index":{"time":"00:00:00","frames":0,"seconds":0,"lenseconds":351,"lentime":"05:51"}},{"performer":"Vadim Spark Cari","title":"Beat Of My Heart (LTN Sunrise Extended Remix)","index":{"time":"05:51:00","frames":26325,"seconds":351,"lenseconds":261,"lentime":"04:21"}},{"performer":"Dashanikon","title":"Somebody Like You (LTN Sunrise Dub Remix)","index":{"time":"10:12:00","frames":45900,"seconds":612,"lenseconds":215,"lentime":"03:35"}},{"performer":"Spencer Brown","title":"Vernal (Original Mix)","index":{"time":"13:47:00","frames":62025,"seconds":827,"lenseconds":281,"lentime":"04:41"}},{"performer":"The Midnight","title":"WeMoveForward (Talamanca Remix)","index":{"time":"18:28:00","frames":83100,"seconds":1108,"lenseconds":384,"lentime":"06:24"}},{"performer":"Mastrovita","title":"Invsbl Dreams (Extended Mix)","index":{"time":"24:52:00","frames":111900,"seconds":1492,"lenseconds":203,"lentime":"03:23"}},{"performer":"Pete K","title":"Solace","index":{"time":"28:15:00","frames":127125,"seconds":1695,"lenseconds":285,"lentime":"04:45"}},{"performer":"Farius","title":"Echo Chamber (Original Mix)","index":{"time":"33:00:00","frames":148500,"seconds":1980,"lenseconds":272,"lentime":"04:32"}},{"performer":"Steve Brian, Pete Severano","title":"Merle (Extended Mix)","index":{"time":"37:32:00","frames":168900,"seconds":2252,"lenseconds":439,"lentime":"07:19"}},{"performer":"Aly & Fila, Paul Thomas","title":"UV (Extended Mix)","index":{"time":"44:51:00","frames":201825,"seconds":2691,"lenseconds":273,"lentime":"04:33"}},{"performer":"Chris Bekker","title":"Episodes (Extended Mix)","index":{"time":"49:24:00","frames":222300,"seconds":2964,"lenseconds":300,"lentime":"05:00"}},{"performer":"Jerome IsmaAe & Alastor","title":"Floyd (Extended Mix)","index":{"time":"54:24:00","frames":244800,"seconds":3264,"lenseconds":336,"lentime":"05:36"}}]}