Carefully constructed music sets for your aural pleasure
Aerodynamix 056 @ Frisky Radio August 2017 mixed by JuanP
Progressive House
1:00:00
progressive house
SHOW TRACKLIST
SHOW CUESHEET
SHOW TXT PL

LOAD IN AUDIO PLAYER

1
Henry Saiz
September
08:15
2
Sahar Z, Navar
Reality Check (Original Mix)
07:05
3
Nico Parisi
Attica (Gai Barone Blue Notes Remix)
07:17
4
Last95
Ravena (Original Mix)
06:18
5
Approaching Black
Let You (Original Mix)
05:43
6
Rag and Bones
Paralyzed (Quivver Remix)
06:38
7
Joep Mencke
Sonder
07:48
8
Eelke Kleijn
The Terminal (Extended Mix)
06:31
9
Way Out West
Lullaby Horizon
04:25
PERFORMER "VA [Mixed by JuanP]" TITLE "Aerodynamix 056 (August 2017) Frisky Radio" FILE "73-va-aerodynamix_056_mixed_by_juan_prada_friskyradio-aug2017.mp3" WAVE TRACK 01 AUDIO PERFORMER "Henry Saiz" TITLE "September" INDEX 01 00:00:00 TRACK 02 AUDIO PERFORMER "Sahar Z, Navar" TITLE "Reality Check (Original Mix)" INDEX 01 08:15:00 TRACK 03 AUDIO PERFORMER "Nico Parisi" TITLE "Attica (Gai Barone Blue Notes Remix)" INDEX 01 15:20:00 TRACK 04 AUDIO PERFORMER "Last95" TITLE "Ravena (Original Mix)" INDEX 01 22:37:00 TRACK 05 AUDIO PERFORMER "Approaching Black" TITLE "Let You (Original Mix)" INDEX 01 28:55:00 TRACK 06 AUDIO PERFORMER "Rag and Bones" TITLE "Paralyzed (Quivver Remix)" INDEX 01 34:38:00 TRACK 07 AUDIO PERFORMER "Joep Mencke" TITLE "Sonder" INDEX 01 41:16:00 TRACK 08 AUDIO PERFORMER "Eelke Kleijn" TITLE "The Terminal (Extended Mix)" INDEX 01 49:04:00 TRACK 09 AUDIO PERFORMER "Way Out West" TITLE "Lullaby Horizon" INDEX 01 55:35:00
01 Henry Saiz - September 00:00 02 Sahar Z, Navar - Reality Check (Original Mix) 08:15 03 Nico Parisi - Attica (Gai Barone Blue Notes Remix) 15:20 04 Last95 - Ravena (Original Mix) 22:37 05 Approaching Black - Let You (Original Mix) 28:55 06 Rag and Bones - Paralyzed (Quivver Remix) 34:38 07 Joep Mencke - Sonder 41:16 08 Eelke Kleijn - The Terminal (Extended Mix) 49:04 09 Way Out West - Lullaby Horizon 55:35
Aerodynamix 056 @ Frisky Radio August 2017 mixed by JuanPdata/73-va-aerodynamix_056_mixed_by_juan_prada_friskyradio-aug2017-500px.pngdata/73-va-aerodynamix_056_mixed_by_juan_prada_friskyradio-aug2017.mp3data/73-va-aerodynamix_056_mixed_by_juan_prada_friskyradio-aug2017.ogg
{"Cuesheet":{"performer":"VA [Mixed by JuanP]","title":"Aerodynamix 056 (August 2017) Frisky Radio","file":"73-va-aerodynamix_056_mixed_by_juan_prada_friskyradio-aug2017.mp3"},"Track":[{"performer":"Henry Saiz","title":"September","index":{"time":"00:00:00","frames":0,"seconds":0,"lenseconds":495,"lentime":"08:15"}},{"performer":"Sahar Z, Navar","title":"Reality Check (Original Mix)","index":{"time":"08:15:00","frames":37125,"seconds":495,"lenseconds":425,"lentime":"07:05"}},{"performer":"Nico Parisi","title":"Attica (Gai Barone Blue Notes Remix)","index":{"time":"15:20:00","frames":69000,"seconds":920,"lenseconds":437,"lentime":"07:17"}},{"performer":"Last95","title":"Ravena (Original Mix)","index":{"time":"22:37:00","frames":101775,"seconds":1357,"lenseconds":378,"lentime":"06:18"}},{"performer":"Approaching Black","title":"Let You (Original Mix)","index":{"time":"28:55:00","frames":130125,"seconds":1735,"lenseconds":343,"lentime":"05:43"}},{"performer":"Rag and Bones","title":"Paralyzed (Quivver Remix)","index":{"time":"34:38:00","frames":155850,"seconds":2078,"lenseconds":398,"lentime":"06:38"}},{"performer":"Joep Mencke","title":"Sonder","index":{"time":"41:16:00","frames":185700,"seconds":2476,"lenseconds":468,"lentime":"07:48"}},{"performer":"Eelke Kleijn","title":"The Terminal (Extended Mix)","index":{"time":"49:04:00","frames":220800,"seconds":2944,"lenseconds":391,"lentime":"06:31"}},{"performer":"Way Out West","title":"Lullaby Horizon","index":{"time":"55:35:00","frames":250125,"seconds":3335,"lenseconds":265,"lentime":"04:25"}}]}